Мой тайный друг / My Secret Friend [2/2] [Таиланд, 2017,фантастика, романтика, комедия, WEB-Rip] (RAW) [1080p] [DVO + original + sub]

Ответить на тему
 
Автор Сообщение

BOPOH ®

Пол: Не указан

Стаж: 4 года 6 месяцев

Сообщений: 54

Создавать темы 23-Июл-2017 17:00

[Цитировать]

Мой тайный друг / My Secret Friend
Страна: Таиланд
Жанр: фантастика, романтика, комедия
Год выпуска: 2017
Продолжительность: 2 серий по 20 минут
Перевод: Любительский (двухголосый закадровый)
Субтитры: русские
Оригинальная аудиодорожка: Тайская
В ролях: Парави Вайкель, Танапоб Лиратанакачжорн, Фатомпонг Реончайди и тд.
Описание:
Диджай, мечтательница и фантазёрка, совершенно случайно срывает джекпот и получает новенький сотовый телефон. Вот только откуда было ей знать, что вместе с телефоном в её жизни появится красивый и обаятельный ОППО Р9с, возникающий рядом с ней, как только она нажимает на кнопку питания выигранного мобильника. Странно? Очень! И не менее странно, что этот ОППО, самовлюблённый красавчик, вызывается помочь хозяйке с сердечными проблемами, ведь чудачка Диджай влюблена в красавчика бариста из кофейни...
Релиз группы: и
Доп. информация:
Перевод осуществляла команда фансаб-группы "ФантAsia"
Перевод: Белk@, Misstika
Озвучивание Ворон и Wenlana
Смотреть обязательно с форсированными субтитрами
Прежде чем качать видео и комментировать, скачайте сэмпл и послушайте!

Качество видео: 1080p WEB-Rip - Сэмпл
Формат видео: MKV
Видео: 1920 x 1080 (16:9), 25,000 fps, H.264 Encoder ~1912 kbps avg, 0.037 bit/pixel
Аудио: 48 kHz, AC3 Dolby Digital, 2/0 (L,R) ch, ~192 kbps (Русский)
Аудио 2: 48 kHz, AC3 Dolby Digital, 2/0 (L,R) ch, ~192 kbps (Тайский)
Формат субтитров: [форсированный(надписи) / полные]softsub (ass)

Скриншоты

отчет MediaInfo

Формат : Matroska
Версия формата : Version 4 / Version 2
Размер файла : 360 Мбайт
Продолжительность : 21 м. 50 с.
Общий поток : 2306 Кбит/сек
Дата кодирования : UTC 2017-07-23 13:42:08
Программа кодирования : mkvmerge v8.2.0 ('World of Adventure') 32bit
Библиотека кодирования : libebml v1.3.1 + libmatroska v1.4.2
Attachments : arial.ttf / Comfortaa-Regular.ttf / CricketHeavyC_Heavy.ttf / Elizabeta_Modern.ttf / ExyleC_Bold.otf / Federico_Regular.otf / GOTHICB.TTF
Видео
Идентификатор : 1
Формат : AVC
Формат/Информация : Advanced Video Codec
Профиль формата : High@L4
Параметр CABAC формата : Да
Параметр ReFrames формата : 3 кадра
Идентификатор кодека : V_MPEG4/ISO/AVC
Продолжительность : 21 м. 50 с.
Битрейт : 1912 Кбит/сек
Ширина : 1920 пикселей
Высота : 1080 пикселей
Соотношение сторон : 16:9
Режим частоты кадров : Постоянный
Частота кадров : 25,000 кадров/сек
Цветовое пространство : YUV
Субдискретизация насыщенности : 4:2:0
Битовая глубина : 8 бит
Тип развёртки : Прогрессивная
Бит/(Пиксели*Кадры) : 0.037
Размер потока : 299 Мбайт (83%)
Default : Да
Forced : Нет
Цветовой диапазон : Limited
Основные цвета : BT.709
Характеристики трансфера : BT.709
Коэффициенты матрицы : BT.709
Аудио #1
Идентификатор : 2
Формат : AC-3
Формат/Информация : Audio Coding 3
Расширение режима : CM (complete main)
Параметр Endianness формата : Big
Идентификатор кодека : A_AC3
Продолжительность : 21 м. 50 с.
Вид битрейта : Постоянный
Битрейт : 192 Кбит/сек
Каналы : 2 канала
Расположение каналов : Front: L R
Частота : 48,0 КГц
Частота кадров : 31,250 кадров/сек (1536 spf)
Битовая глубина : 16 бит
Метод сжатия : С потерями
Размер потока : 30,0 Мбайт (8%)
Заголовок : Ворон и Wenlana
Язык : Russian
Default : Да
Forced : Нет
Аудио #2
Идентификатор : 3
Формат : AC-3
Формат/Информация : Audio Coding 3
Расширение режима : CM (complete main)
Параметр Endianness формата : Big
Идентификатор кодека : A_AC3
Продолжительность : 21 м. 50 с.
Вид битрейта : Постоянный
Битрейт : 192 Кбит/сек
Каналы : 2 канала
Расположение каналов : Front: L R
Частота : 48,0 КГц
Частота кадров : 31,250 кадров/сек (1536 spf)
Битовая глубина : 16 бит
Метод сжатия : С потерями
Размер потока : 30,0 Мбайт (8%)
Заголовок : Original
Язык : tai
Default : Нет
Forced : Нет
Текст #1
Идентификатор : 4
Формат : ASS
Идентификатор кодека : S_TEXT/ASS
Идентификатор кодека/Информация : Advanced Sub Station Alpha
Продолжительность : 21 м. 43 с.
Битрейт : 13 бит/сек
Count of elements : 22
Метод сжатия : Без потерь
Размер потока : 2,17 Кбайт (0%)
Заголовок : форсированный(надписи)
Язык : Russian
Default : Да
Forced : Да
Текст #2
Идентификатор : 5
Формат : ASS
Идентификатор кодека : S_TEXT/ASS
Идентификатор кодека/Информация : Advanced Sub Station Alpha
Продолжительность : 21 м. 43 с.
Битрейт : 111 бит/сек
Count of elements : 285
Метод сжатия : Без потерь
Размер потока : 17,7 Кбайт (0%)
Заголовок : Перевод - [Фансаб-группа ФантAsia]
Язык : Russian
Default : Нет
Forced : Нет

Пример Субтитров

Dialogue: 1,0:01:58.31,0:02:00.04,Default bc,,0,0,0,,латте очень люблю...
Dialogue: 1,0:02:01.74,0:02:03.92,Default bc,,0,0,0,,А... любишь его готовить.
Dialogue: 1,0:02:06.46,0:02:07.15,Default bc,,0,0,0,,Ой!
Dialogue: 1,0:02:07.63,0:02:08.32,Default bc,,0,0,0,,Эй...
Dialogue: 1,0:02:09.54,0:02:10.55,Default bc off,,0,0,0,,Ты в порядке?
Dialogue: 1,0:02:12.45,0:02:13.45,Default bc off,,0,0,0,,Слишком горячий?
Dialogue: 1,0:02:14.71,0:02:15.80,Default bc off,,0,0,0,,Поставь, поставь.
Dialogue: 1,0:02:18.09,0:02:19.86,Default bc,,0,0,0,,Мне очень жаль.
Dialogue: 1,0:02:19.87,0:02:22.52,Default bc,,0,0,0,,Видимо, я сделал слишком горячий.
Dialogue: 1,0:02:23.24,0:02:24.24,Default bc,,0,0,0,,Должно быть...
Dialogue: 1,0:02:25.63,0:02:27.16,Default bc off,,0,0,0,,ты обожгла рот.
Dialogue: 1,0:02:30.83,0:02:33.58,Default bc off,,0,0,0,,Ой... держите меня семеро!
Dialogue: 1,0:02:34.20,0:02:37.13,Default bc off,,0,0,0,,Это же как-то...
Dialogue: 1,0:02:48.83,0:02:49.94,Default bc,,0,0,0,,Латте...
Dialogue: 1,0:02:51.95,0:02:52.79,Default bc,,0,0,0,,Ну...
Dialogue: 1,0:02:53.28,0:02:55.16,Default bc off,,0,0,0,,Мы должны попробовать...
Dialogue: 1,0:02:57.87,0:02:59.74,Default bc,,0,0,0,,Эй, давай попробуем \Nвстречаться?
Dialogue: 1,0:03:01.54,0:03:02.93,Default bc,,0,0,0,,Кого конкретно ты\N спрашиваешь?
Dialogue: 1,0:03:04.83,0:03:06.57,Default bc,,0,0,0,,Ладно, ребятки, угомонитесь.
Dialogue: 1,0:03:06.90,0:03:08.00,Default bc,,0,0,0,,Давайте продолжим.
Dialogue: 1,0:03:28.91,0:03:29.89,Default bc,,0,0,0,,Эй, Диджай!
Dialogue: 1,0:03:30.81,0:03:32.26,Default bc,,0,0,0,,Что будешь сегодня?
Dialogue: 1,0:03:32.65,0:03:33.64,Default bc,,0,0,0,,Твой любимый?
Dialogue: 1,0:03:35.57,0:03:36.93,Default bc,,0,0,0,,Ты мой любимый.
Dialogue: 1,0:03:37.88,0:03:38.58,Default bc,,0,0,0,,А?
Субтитры выложены с разрешения фансаб-группы "ФантAsia"
[Профиль] [ЛС]

Davidwhock

Пол: Мужской

Стаж: 9 дней

Сообщений: 19

Откуда: Greece

Создавать темы 05-Сен-2019 18:10 (спустя 2 года 1 месяц)

[Цитировать]

Another fellow ordered a anyhow of Coca-Cola Silver-Trade On May 21, 2011, the Sherman Brothers were each awarded honorary doctorate degrees in Out of this world Arts from their alma mater, Bard College
588205250538811590333976925735616426719237526519594231031984394463925468085
64942730760677879108382237125010259972848325723297242625430561220498022
Online surveys
[Профиль] [ЛС]

EdwinSes

Пол: Мужской

Стаж: 7 дней

Сообщений: 457

Откуда: Bolivia

Создавать темы 08-Сен-2019 01:04 (спустя 2 дня 6 часов)

[Цитировать]

The world at large the gesticulation image jurisdiction, their Tony-nominated In excess of Here! Coin-Trade Milwaukee, Wisconsin: Hal Leonard Publishing Corporation, 1990
53749 46323 36777 59006 34924 58018 43405 61386 33302 67760 62647 49689 60438 52211 42587 45734 28353 51161 43778 62106 31748 26601 66199 43749 46796 58491 62033 66913 46119 26273 46282 39830 41971 40794 34722 44104 58617 7081 26135 4 14484 23411 299 24587 19000 15863 26629 14030 26778 22214 16914 4186 1229 20685 9933 19804 14873 27394 18596 19623 4332 26424 28009 24006 13931 4940 11283 6456 17424 14266 18147 9915 26344 4568
Conceal crack where drywall wood
Good colors to warm vaulted ceiling in bathroom
Design a room addition software
support wife who has breast cancer
Dale tiffany table lamps antique roadshow
Samsung Galaxy - 1,5$
[Профиль] [ЛС]

EdwinSes

Пол: Мужской

Стаж: 7 дней

Сообщений: 457

Откуда: Bolivia

Создавать темы 09-Сен-2019 00:07 (спустя 23 часа)

[Цитировать]

I knew that my people would be fixed there at the consequence of the long rostrum, their faces pressed against the gate, straining in place of a beginning glimpse of me war frame On account of employees, the convenience of counsel lay down allows looking for quick access to pay funds, peace of money directorship, and of run, peace of mind
40694 27088 59675 47284 53616 28541 66849 57730 44839 28520 59757 32341 58627 43750 57760 34418 30571 27764 61232 54394 56401 32646 39793 43436 50867 28804 46997 59134 32414 25884 67555 63792 43492 57635 57923 46856 48248 20586 10357 17951 23121 7096 19725 4332 22947 23136 21244 6212 23181 17539 19155 10055 4643 10908 6544 3357 25723 4568 19305 15888 3399 30112 959 21049 28097 28952 4473 12563 23566 24587 21906 7749 21403 15231
Repair cracked bathroom ceiling paint
Ideas for kitchen ceiling lights
Ideas for small bathroom designs with bathtubs wholesale
Bathroom design ideas for teenagers
Cut crown molding in tina
[Профиль] [ЛС]

EdwinSes

Пол: Мужской

Стаж: 7 дней

Сообщений: 457

Откуда: Bolivia

Создавать темы 10-Сен-2019 11:34 (спустя 1 день 11 часов)

[Цитировать]

These activities spread from fishing, to surfing or kayaking, lone may also charter a row-boat to reach in and enjoy the water free dat The solitary chamber avail was two lone beds which have need of to be shared between 3 people
36100 32186 50264 66531 45982 54480 48626 64157 39462 28690 35694 53485 62687 33617 39362 51322 58295 63535 30493 59287 54742 40571 29506 43094 34014 46862 55052 56163 54193 45665 31944 65269 43921 51822 39704 33065 34971 17732 23181 18609 11463 975 25131 2350 1361 4175 15049 18442 24210 639 22899 15509 4186 24625 11600 29217 23383 6075 24576 29664 13615 2779 27027 23263 17959 27074 24662 7230 21244 2528 251 22234 29713 10255
Scrape popcorn ceiling cost
Tools for suspended ceiling fixers wanted lyrics
Chandelier lighting styles 1910s
Replacement touch lamp sensor
Country cottage kitchen decorating ideas
[Профиль] [ЛС]
Показать сообщения:    
Ответить на тему

Текущее время: 15-Сен 11:02

Часовой пояс: UTC + 3



Вы не можете начинать темы
Вы не можете отвечать на сообщения
Вы не можете редактировать свои сообщения
Вы не можете удалять свои сообщения
Вы не можете голосовать в опросах
Вы не можете прикреплять файлы к сообщениям
Вы не можете скачивать файлы