Игра иллюзий / Game superstar [17/17] [Таиланд, 2017, романтика, экшен, HDTVRip] [1080p] VO

Ответить на тему
 
Автор Сообщение

Sandairina ®

Пол: Женский

Стаж: 4 года 6 месяцев

Сообщений: 68

Создавать темы 15-Сен-2017 11:41

[Цитировать]

Игра иллюзий / Game Maya / Game superstar
Страна: Ьаиланд
Год выпуска: 2017
Жанр: романтика, экшен
Продолжительность: 17 серий по 60 мин
Компания: Magic If - Exact Scenario
Канал: One HD
В ролях:
Пуш
Тжуй
Перевод: Одноголосая озвучка
Описание: Пимдао (Тжуй) с детства вращается в шоубизнесе и считается, что она обладает непростым характером. Из-за угроз ей приходится обзавестись телохранителем (Пуш), который стал им только ради того, чтобы выяснить, кто причастен к гибели его невесты. В процессе расследования он не только найдет истинных злодеев, но и обретет любовь в лице звезды, что озарит его жизнь и подарит новую надежду.
Доп.информация:
Озвучивание: Sandairina
Перевод на русский: ФСГ ФантAsia
Неотключаемые субтитры: Полухардсаб
Качество видео: HDTVRip
Формат: MP4
Видео: AVC, 1920х1080, 25.000fps, 2 198Kbps
Аудио: ac3, 48 KHz, 192 Kbps Язык Русский (в составе контейнера) ; Озвучка: одноголосая
Сэмпл: https://yadi.sk/mail/?hash=5mXUCspDC%2FA9II%2BqAAnr...mp;uid=142586922

Скриншоты

МедиаИнфо

Format : MPEG-4
Format profile : Base Media
Codec ID : isom
File size : 1 001 MiB
Duration : 58mn 16s
Overall bit rate : 2 402 Kbps
Encoded date : UTC 2017-06-15 20:16:44
Tagged date : UTC 2017-06-15 20:16:44
Video
ID : 1
Format : AVC
Format/Info : Advanced Video Codec
Format profile : High@L5
Format settings, CABAC : Yes
Format settings, ReFrames : 5 frames
Codec ID : avc1
Codec ID/Info : Advanced Video Coding
Duration : 58mn 16s
Bit rate : 2 198 Kbps
Maximum bit rate : 11.3 Mbps
Width : 1 920 pixels
Height : 1 080 pixels
Display aspect ratio : 16:9
Frame rate mode : Constant
Frame rate : 25.000 fps
Color space : YUV
Chroma subsampling : 4:2:0
Bit depth : 8 bits
Scan type : Progressive
Bits/(Pixel*Frame) : 0.042
Stream size : 921 MiB (92%)
Writing library : x264 core 130 r2273 b3065e6
Encoding settings : cabac=1 / ref=5 / deblock=1:-2:-1 / analyse=0x3:0x133 / me=hex / subme=4 / psy=1 / psy_rd=1.00:0.00 / mixed_ref=0 / me_range=16 / chroma_me=1 / trellis=1 / 8x8dct=1 / cqm=0 / deadzone=21,11 / fast_pskip=1 / chroma_qp_offset=0 / threads=12 / lookahead_threads=3 / sliced_threads=0 / nr=0 / decimate=1 / interlaced=0 / bluray_compat=0 / constrained_intra=0 / bframes=5 / b_pyramid=2 / b_adapt=1 / b_bias=0 / direct=1 / weightb=1 / open_gop=0 / weightp=2 / keyint=250 / keyint_min=25 / scenecut=40 / intra_refresh=0 / rc_lookahead=20 / rc=abr / mbtree=1 / bitrate=2198 / ratetol=1.0 / qcomp=0.60 / qpmin=10 / qpmax=51 / qpstep=4 / vbv_maxrate=62500 / vbv_bufsize=78125 / nal_hrd=none / ip_ratio=1.40 / aq=1:1.00
Encoded date : UTC 2017-06-15 20:16:44
Tagged date : UTC 2017-06-15 20:18:24
Audio
ID : 2
Format : AC-3
Format/Info : Audio Coding 3
Mode extension : CM (complete main)
Format settings, Endianness : Big
Codec ID : ac-3
Duration : 58mn 16s
Bit rate mode : Constant
Bit rate : 192 Kbps
Channel(s) : 2 channels
Channel positions : Front: L R
Sampling rate : 48.0 KHz
Bit depth : 16 bits
Compression mode : Lossy
Stream size : 80.0 MiB (8%)
Encoded date : UTC 2017-06-15 20:18:16
Tagged date : UTC 2017-06-15 20:18:24


Последний раз редактировалось: Sandairina (2018-02-21 19:40), всего редактировалось 4 раз(а)
[Профиль] [ЛС]

екатерина

Пол: Не указан

Стаж: 2 года 1 месяц

Сообщений: 1

Создавать темы 24-Окт-2017 16:06 (спустя 1 месяц 9 дней)

[Цитировать]

Здравствуйте можно узнать у меня пять серий с качались 6.7.8. стоят и не качаются
[Профиль] [ЛС]

Sandairina ®

Пол: Женский

Стаж: 4 года 6 месяцев

Сообщений: 68

Создавать темы 29-Окт-2017 20:00 (спустя 5 дней)

[Цитировать]

екатерина, возможно меня не было на раздаче.
[Профиль] [ЛС]

Sandairina ®

Пол: Женский

Стаж: 4 года 6 месяцев

Сообщений: 68

Создавать темы 04-Фев-2018 15:02 (спустя 3 месяца 5 дней)

[Цитировать]

Добавлены 9, 10, 11 и 12 серии.
[Профиль] [ЛС]

Sandairina ®

Пол: Женский

Стаж: 4 года 6 месяцев

Сообщений: 68

Создавать темы 16-Фев-2018 23:10 (спустя 12 дней)

[Цитировать]

Добавлены 13, 14 и 15 серии.
[Профиль] [ЛС]

Sandairina ®

Пол: Женский

Стаж: 4 года 6 месяцев

Сообщений: 68

Создавать темы 21-Фев-2018 19:44 (спустя 4 дня)

[Цитировать]

Добавлены заключительные серии! Приятного просмотра!
Пожалуйста, оставайтесь на раздаче как можно дольше!
[Профиль] [ЛС]
Показать сообщения:    
Ответить на тему

Текущее время: 25-Авг 07:37

Часовой пояс: UTC + 3



Вы не можете начинать темы
Вы не можете отвечать на сообщения
Вы не можете редактировать свои сообщения
Вы не можете удалять свои сообщения
Вы не можете голосовать в опросах
Вы не можете прикреплять файлы к сообщениям
Вы не можете скачивать файлы