Царь обезьян / У Кун / Wu Kong (Дерек Квок / Derek Kwok) [2017, Китай, приключения, боевик, фэнтези, мелодрама, WEBDLRip-AVC] DVO + Original Chi + Sub Rus

Ответить на тему
 
Автор Сообщение

BOPOH ®

Пол: Не указан

Стаж: 4 года 6 месяцев

Сообщений: 54

Создавать темы 13-Окт-2017 15:19

[Цитировать]

Царь обезьян / У Кун / Wu Kong
Год выпуска: 2017
Страна: Китай
Жанр: приключения, боевик, фэнтези, мелодрама
Продолжительность: 02:02:51
Перевод: Любительский (двухголосый закадровый)
Русские субтитры: есть
Субтитры: китайский/английский хардсаб
Режиссер: Дерек Квок / Derek Kwok
В ролях: Эдди Пэн, Ни Ни, Оу Хао, Чжэн Шуан, Шон Юэ
Описание: История про царя обезьян по имени Укун практически никому не известна. Мир уже давно позабыл о подобном, и теперь это стало просто рассказом и легендой. Люди забыли о короле, но он действительно существует.
Релиз группы:
Доп. информация: Перевод осуществляла команда Sub-Unit Zoloto
Перевод: Neonella, Lu$a, liezh
Редакция: ice
Тайминг: Shiori
Озвучивание: Ворон и Wenlana
Смотреть обязательно с форсированными субтитрами
Прежде чем качать видео и комментировать, скачайте сэмпл и послушайте!

Качество: WEBDLRip-AVC - Сэмпл
Исходник: Wu.Kong.2017.4K.WEB-DL.AAC.H264-OurTV
Формат видео: mkv
Видео: 720x304 (2,35:1), 24,000 fps, x264 ~2000 kbps avg, 0.381 bit/pixel
Аудио: 48 kHz, AC3 Dolby Digital, 2/0 (L,R) ch, ~192 kbps (Русский)
Аудио: 48 kHz, AC3 Dolby Digital, 2/0 (L,R) ch, ~192 kbps (Китайский)
Формат субтитров: [форсированный(надписи) / полные]softsub (ass)

Скриншоты

Пример Субтитров

Dialogue: 0,0:05:04.05,0:05:06.74,Default,,0,0,0,,{\blur30}Церемония вот-вот начнётся.\NЧем ты здесь занимаешься?
Dialogue: 0,0:05:07.30,0:05:09.72,Default,,0,0,0,,{\blur30}Я ничего не делаю,\N просто смотрю на закат.
Dialogue: 0,0:05:11.38,0:05:12.70,Default,,0,0,0,,{\blur30}А я собираюсь идти.
Dialogue: 0,0:05:12.72,0:05:13.36,Default,,0,0,0,,{\blur30}Поторопись.
Dialogue: 0,0:05:48.49,0:05:49.32,Default,,0,0,0,,{\blur30}Кто там?
Dialogue: 0,0:05:51.82,0:05:52.58,Default,,0,0,0,,{\blur30}Стой!
Dialogue: 0,0:06:07.93,0:06:10.16,Default,,0,0,0,,{\blur30}Я раньше только видел такую еду.
Dialogue: 0,0:06:10.17,0:06:12.22,Default,,0,0,0,,{\blur30}Теперь пришла очередь попробовать.
Dialogue: 0,0:06:12.28,0:06:16.48,Default,,0,0,0,,{\blur30}Слышал, что эти персики\N очень сочные.
Dialogue: 0,0:06:17.57,0:06:20.16,Default,,0,0,0,,{\blur30}Господин Цзюй Лин,\N несут персики.
Dialogue: 0,0:06:21.06,0:06:22.83,Default,,0,0,0,,{\blur30}Может, мне давить посильнее?
Dialogue: 0,0:06:24.65,0:06:25.81,Default,,0,0,0,,{\blur30}Куда это она понесла?
Dialogue: 0,0:06:26.82,0:06:28.56,Default,,0,0,0,,{\blur30}Быстро! \NТащи её сюда будем воспитывать!
Dialogue: 0,0:06:29.30,0:06:29.91,Default,,0,0,0,,{\blur30}Иди сюда!
Dialogue: 0,0:06:31.41,0:06:33.00,Default,,0,0,0,,{\blur30}Поставь свой персик здесь.
Dialogue: 0,0:06:34.49,0:06:36.58,Default,,0,0,0,,{\blur30}Я сказал: \Nпоставь свой персик!
Dialogue: 0,0:06:36.76,0:06:37.74,Default,,0,0,0,,{\blur30}Сядь.
Dialogue: 0,0:06:38.94,0:06:40.13,Default,,0,0,0,,{\blur30}Села!
Dialogue: 0,0:06:41.84,0:06:42.93,Default,,0,0,0,,{\blur30}- Что делаешь?!\N - Простите,
Dialogue: 0,0:06:42.96,0:06:46.66,Default,,0,0,0,,{\blur30}господин Цзюй Лин, я не нарочно. \N- Поймайте преступницу!
Dialogue: 0,0:06:46.94,0:06:47.97,Default,,0,0,0,,{\blur30}Схватите её!
Dialogue: 0,0:06:49.96,0:06:53.68,Default,,0,0,0,,{\blur30}- Ты здесь, чтобы прикончить меня? \N- Я просто принесла персик.
Dialogue: 0,0:06:56.90,0:06:58.70,Default,,0,0,0,,{\blur30}Это, по-твоему, персик?
Dialogue: 0,0:06:59.41,0:07:01.22,Default,,0,0,0,,{\blur30}Как посмела \Nсъесть мой персик?
Dialogue: 0,0:07:01.93,0:07:03.05,Default,,0,0,0,,{\blur30}Похлопаем!
Dialogue: 0,0:07:06.54,0:07:07.92,Default,,0,0,0,,{\blur30}Я - Цзюань Лин.
Dialogue: 0,0:07:10.69,0:07:12.24,Default,,0,0,0,,{\blur30}Брат Лин, \Nпрояви немного уважения.

отчет MediaInfo

Формат : Matroska
Версия формата : Version 4 / Version 2
Размер файла : 2,05 Гбайт
Продолжительность : 2 ч. 2 м.
Общий поток : 2386 Кбит/сек
Дата кодирования : UTC 2017-10-13 11:59:27
Программа кодирования : mkvmerge v8.2.0 ('World of Adventure') 32bit
Библиотека кодирования : libebml v1.3.1 + libmatroska v1.4.2
Attachments : AVA_BNL.TTF / beastim.TTF / otrada.otf
Видео
Идентификатор : 1
Формат : AVC
Формат/Информация : Advanced Video Codec
Профиль формата : High@L4.1
Настройки формата : CABAC / 10 Ref Frames
Параметр CABAC формата : Да
Параметр RefFrames формата : 10 кадров
Идентификатор кодека : V_MPEG4/ISO/AVC
Продолжительность : 2 ч. 2 м.
Битрейт : 2000 Кбит/сек
Ширина : 720 пикселей
Высота : 304 пикселя
Соотношение сторон : 2,35:1
Режим частоты кадров : Постоянный
Частота кадров : 24,000 кадра/сек
Цветовое пространство : YUV
Субдискретизация насыщенности : 4:2:0
Битовая глубина : 8 бит
Тип развёртки : Прогрессивная
Бит/(Пиксели*Кадры) : 0.381
Размер потока : 1,72 Гбайт (84%)
Библиотека кодирования : x264 core 148 r2638 7599210
Настройки программы : cabac=1 / ref=10 / deblock=1:-2:-1 / analyse=0x3:0x133 / me=umh / subme=10 / psy=1 / psy_rd=1.00:0.00 / mixed_ref=1 / me_range=24 / chroma_me=1 / trellis=2 / 8x8dct=1 / cqm=0 / deadzone=21,11 / fast_pskip=0 / chroma_qp_offset=-2 / threads=6 / lookahead_threads=1 / sliced_threads=0 / nr=0 / decimate=0 / interlaced=0 / bluray_compat=0 / constrained_intra=0 / bframes=10 / b_pyramid=2 / b_adapt=2 / b_bias=0 / direct=3 / weightb=1 / open_gop=1 / weightp=2 / keyint=240 / keyint_min=24 / scenecut=40 / intra_refresh=0 / rc_lookahead=60 / rc=2pass / mbtree=0 / bitrate=2000 / ratetol=1.0 / qcomp=0.70 / qpmin=10 / qpmax=51 / qpstep=4 / cplxblur=20.0 / qblur=0.5 / vbv_maxrate=62500 / vbv_bufsize=78125 / nal_hrd=none / filler=0 / ip_ratio=1.40 / pb_ratio=1.30 / aq=1:1.00
Язык : English
Default : Да
Forced : Нет
Цветовой диапазон : Limited
Коэффициенты матрицы : BT.709
Аудио #1
Идентификатор : 2
Формат : AC-3
Формат/Информация : Audio Coding 3
Параметр Endianness формата : Big
Идентификатор кодека : A_AC3
Продолжительность : 2 ч. 2 м.
Вид битрейта : Постоянный
Битрейт : 192 Кбит/сек
Каналы : 2 канала
Расположение каналов : Front: L R
Частота : 48,0 КГц
Частота кадров : 31,250 кадров/сек (1536 SPF)
Битовая глубина : 16 бит
Метод сжатия : С потерями
Размер потока : 169 Мбайт (8%)
Заголовок : Ворон и Wenlana
Язык : Russian
ServiceKind/String : Complete Main
Default : Да
Forced : Нет
Аудио #2
Идентификатор : 3
Формат : AC-3
Формат/Информация : Audio Coding 3
Параметр Endianness формата : Big
Идентификатор кодека : A_AC3
Продолжительность : 2 ч. 2 м.
Вид битрейта : Постоянный
Битрейт : 192 Кбит/сек
Каналы : 2 канала
Расположение каналов : Front: L R
Частота : 48,0 КГц
Частота кадров : 31,250 кадров/сек (1536 SPF)
Битовая глубина : 16 бит
Метод сжатия : С потерями
Размер потока : 169 Мбайт (8%)
Заголовок : Original
Язык : Chinese
ServiceKind/String : Complete Main
Default : Нет
Forced : Нет
Текст #1
Идентификатор : 4
Формат : ASS
Идентификатор кодека : S_TEXT/ASS
Идентификатор кодека/Информация : Advanced Sub Station Alpha
Продолжительность : 1 ч. 56 м.
Битрейт : 1 бит/сек
ElementCount : 9
Метод сжатия : Без потерь
Размер потока : 1,09 Кбайт (0%)
Заголовок : форсированный(надписи)
Язык : Russian
Default : Да
Forced : Да
Текст #2
Идентификатор : 5
Формат : ASS
Идентификатор кодека : S_TEXT/ASS
Идентификатор кодека/Информация : Advanced Sub Station Alpha
Продолжительность : 1 ч. 56 м.
Битрейт : 102 бит/сек
ElementCount : 1086
Метод сжатия : Без потерь
Размер потока : 87,1 Кбайт (0%)
Заголовок : Перевод: фансаб-группы Sub-Unit Zoloto
Язык : Russian
Default : Нет
Forced : Нет
[Профиль] [ЛС]
Показать сообщения:    
Ответить на тему

Текущее время: 15-Сен 11:39

Часовой пояс: UTC + 3



Вы не можете начинать темы
Вы не можете отвечать на сообщения
Вы не можете редактировать свои сообщения
Вы не можете удалять свои сообщения
Вы не можете голосовать в опросах
Вы не можете прикреплять файлы к сообщениям
Вы не можете скачивать файлы