Мистер Бэк / Mister Back [16/16] [2014, романтика, комедия, фэнтези, TVRip] [450p] DVO (SOUND-GROUP)

Ответить на тему
 
Автор Сообщение

Sandairina ®

Пол: Женский

Стаж: 4 года 6 месяцев

Сообщений: 68

Создавать темы 25-Фев-2015 22:48

[Цитировать]

Мистер Бэк / Mr. Baеk / Mister Back
Страна: Южная Корея
Год выпуска: 5 ноября 2014
Жанр: романтика, комедия, фэнтези
Продолжительность: 16 серий по 60 мин.
Режиссер: Ли Чжэ Дон
В ролях: Шин Ха Кён - Чхве Го Бон / Чхве Шин Хён
Чан На Ра - Ын Ха Су
Ли Джун - Чхве Дэ Хан
Пак Е Чжин - Хон Чжи Юн
Чон Сок Вон - Чон И Гон
Перевод: Двухголосая озвучка
Текст озвучили: SOUND-GROUP
1 - 4 серии: Sandairina и Sytry(стажёр)
с 5ой серии: Gracer & Sandairina
Описание: История одного 70-летнего генерального директора отеля, который больше всего в жизни любит две вещи: себя и деньги. Однако судьба подарила этому престарелому нарциссу-скряге второй шанс, и он вдруг молодеет на 40 лет. Теперь ему придётся стать мальчишкой на побегушках и трудиться в отделе обслуживания номеров. Если повезёт, может, хоть ума наберётся да влюбится в какую-нибудь девушку, кто знает...
Доп.информация:
Перевод: ФСГ Альянс
Перевод: Бонист & AngelMa
Редакция: Somoon
Перевод песен: Zolotko
Тайпсет: AngelMa
Сэмпл:
https://yadi.sk/mail/?hash=Kw50zoghaPjLLKAkKmWhFpve...ztjirY7Kmv0YI%3D Sandairina и Sytry(стажёр)
https://yadi.sk/mail/?hash=tILn4X%2BjFRuxRRCbnLas3y...mp;uid=142586922 Gracer & Sandairina
Неотключаемые субтитры: Полухардсаб (надписи для озвучки)
Русские субтитры: Нет
Оригинальная аудиодорожка: Нет
Качество видео: TVRip
Разрешение: 450p
Формат: AVI
Видео: 800x450, 29.970 кадров/сек, XVID, 1403 Кбит/сек
Аудио: 48,0 КГц, МР3, 2 канала, 192 Кбит/сек, русская oзвучка двухголосая (Sandairina и Sytry(стажёр))
с 5ой серии: Gracer & Sandairina

Скриншоты

MediaInfo

Format : AVI
Format/Info : Audio Video Interleave
File size : 700 MiB
Duration : 1h 0mn
Overall bit rate : 1 607 Kbps
Writing application : VirtualDubMod 1.5.10.3 | www.virtualdub-fr.org || (build 2550/release)
Writing library : VirtualDubMod build 2550/release
Video
ID : 0
Format : MPEG-4 Visual
Format profile : Advanced Simple@L5
Format settings, BVOP : 2
Format settings, QPel : No
Format settings, GMC : No warppoints
Format settings, Matrix : Default (H.263)
Muxing mode : Packed bitstream
Codec ID : XVID
Codec ID/Hint : XviD
Duration : 1h 0mn
Bit rate : 1 403 Kbps
Width : 800 pixels
Height : 450 pixels
Display aspect ratio : 16:9
Frame rate : 29.970 fps
Color space : YUV
Chroma subsampling : 4:2:0
Bit depth : 8 bits
Scan type : Progressive
Compression mode : Lossy
Bits/(Pixel*Frame) : 0.130
Stream size : 611 MiB (87%)
Writing library : XviD 1.2.1 (UTC 2008-12-04)
Audio
ID : 1
Format : MPEG Audio
Format version : Version 1
Format profile : Layer 3
Mode : Joint stereo
Codec ID : 55
Codec ID/Hint : MP3
Duration : 1h 0mn
Bit rate mode : Constant
Bit rate : 192 Kbps
Channel(s) : 2 channels
Sampling rate : 48.0 KHz
Compression mode : Lossy
Stream size : 83.6 MiB (12%)
Alignment : Aligned on interleaves
Interleave, duration : 33 ms (1.00 video frame)
Interleave, preload duration : 504 ms
РАЗДАЧА 720р ЗДЕСЬ


Последний раз редактировалось: Sandairina (2015-08-24 19:18), всего редактировалось 6 раз(а)
[Профиль] [ЛС]

Sandairina ®

Пол: Женский

Стаж: 4 года 6 месяцев

Сообщений: 68

Создавать темы 15-Мар-2015 13:45 (спустя 17 дней)

[Цитировать]

Добавлена 8-ая серия.
[Профиль] [ЛС]

Sandairina ®

Пол: Женский

Стаж: 4 года 6 месяцев

Сообщений: 68

Создавать темы 30-Апр-2015 16:05 (спустя 1 месяц 15 дней)

[Цитировать]

Добавлены 9-ая и 10-ая серии.
[Профиль] [ЛС]

Sandairina ®

Пол: Женский

Стаж: 4 года 6 месяцев

Сообщений: 68

Создавать темы 02-Май-2015 18:14 (спустя 2 дня 2 часа)

[Цитировать]

Добавлена 11-ая серия.
[Профиль] [ЛС]

Sandairina ®

Пол: Женский

Стаж: 4 года 6 месяцев

Сообщений: 68

Создавать темы 05-Май-2015 20:24 (спустя 3 дня)

[Цитировать]

Заменена 11-ая серия.
Добавлены 12-ая и 13-ая серии.
[Профиль] [ЛС]

Sandairina ®

Пол: Женский

Стаж: 4 года 6 месяцев

Сообщений: 68

Создавать темы 30-Июл-2015 17:06 (спустя 2 месяца 24 дня)

[Цитировать]

Добавлена 14-ая серия.
[Профиль] [ЛС]

Sandairina ®

Пол: Женский

Стаж: 4 года 6 месяцев

Сообщений: 68

Создавать темы 20-Авг-2015 19:11 (спустя 21 день)

[Цитировать]

Добавлена 15-ая серия.
[Профиль] [ЛС]

Sandairina ®

Пол: Женский

Стаж: 4 года 6 месяцев

Сообщений: 68

Создавать темы 24-Авг-2015 19:21 (спустя 4 дня)

[Цитировать]

Добавлена заключительная серия!
[Профиль] [ЛС]
Показать сообщения:    
Ответить на тему

Текущее время: 15-Сен 10:48

Часовой пояс: UTC + 3



Вы не можете начинать темы
Вы не можете отвечать на сообщения
Вы не можете редактировать свои сообщения
Вы не можете удалять свои сообщения
Вы не можете голосовать в опросах
Вы не можете прикреплять файлы к сообщениям
Вы не можете скачивать файлы