Охота за Драконом / Chasing the Dragon / Chui lung (Вон Цзин / Wong Jing, Аман Чан / Aman Chang) [2017, Гонконг, криминал, боевик, HDRip-AVC] DVO + Original Zho + Sub Rus

Ответить на тему
 
Автор Сообщение

BOPOH ®

Пол: Не указан

Стаж: 4 года 6 месяцев

Сообщений: 54

Создавать темы 18-Окт-2018 19:00

[Цитировать]

Охота за Драконом / Chasing the Dragon / Chui lung
Год выпуска: 2017
Страна: Гонконг
Жанр: криминал, боевик
Продолжительность: 02:08:48
Перевод: Любительский (двухголосый закадровый)
Русские субтитры: есть
Режиссер: Вон Цзин / Wong Jing, Аман Чан / Aman Chang
В ролях: Кен Тун, Донни Йен, Энди Лау, Филип Кеунг, Лоуренс Чоу, Ники Чоу, Тсан Кун, Феликс Вон, Теренс Инь, Филип Нг
Описание: 1963 год. Один колхозник решает бежать из коммунистического Китая в коррумпированный и продажный Гонконг, чтобы навсегда променять работу в поле на профессию ещё одного уличного головореза. Ради светлого будущего и куска хлеба упорный нелегал соглашается вступить в войну между преступными кланами.
Релиз группы:
Доп. информация: Перевод осуществляла команда фансаб-группы "Zipper"
Перевод, Редакция и тайпсет: DiKey & FQ
Озвучивание: Ворон и Wenlana
Смотреть обязательно с форсированными субтитрами на надписи!
Прежде чем качать видео и комментировать, скачайте сэмпл и послушайте!

Качество видео: HDTVRip-AVC - Сэмпл
Исходник: Chasing the Dragon.2017.BluRay.720p.x264.AC3
Формат видео: MKV
Видео: 800x336 (2,40:1), 24,000 fps, x264 ~1522 kbps avg, 0.236 bit/pixel
Аудио: 48 kHz, AC3 Dolby Digital, 3/2 (L,C,R,l,r) + LFE ch, ~448 kbps (Русский)
Аудио 2: 48 kHz, AC3 Dolby Digital, 3/2 (L,C,R,l,r) + LFE ch, ~448 kbps (Китайский)
Формат субтитров: [форсированный(надписи) / полные]softsub (ass)

Скриншоты

отчет MediaInfo

Формат : Matroska
Версия формата : Version 4
Размер файла : 2,18 Гбайт
Продолжительность : 2 ч. 8 м.
Общий поток : 2423 Кбит/сек
Дата кодирования : UTC 2018-10-18 15:32:31
Программа кодирования : mkvmerge v8.2.0 ('World of Adventure') 32bit
Библиотека кодирования : libebml v1.3.1 + libmatroska v1.4.2
Attachments : calibrib.ttf / calibriz.ttf / FRAMDCN.TTF / times.ttf / timesbd.ttf / YanoneKaffeesatz-Bold.otf
Видео
Идентификатор : 1
Формат : AVC
Формат/Информация : Advanced Video Codec
Профиль формата : High@L4.1
Настройки формата : CABAC / 10 Ref Frames
Параметр CABAC формата : Да
Параметр RefFrames формата : 10 кадров
Идентификатор кодека : V_MPEG4/ISO/AVC
Продолжительность : 2 ч. 8 м.
Битрейт : 1522 Кбит/сек
Ширина : 800 пикселей
Высота : 336 пикселей
Соотношение сторон : 2,40:1
Режим частоты кадров : Постоянный
Частота кадров : 24,000 кадра/сек
Цветовое пространство : YUV
Субдискретизация насыщенности : 4:2:0
Битовая глубина : 8 бит
Тип развёртки : Прогрессивная
Бит/(Пиксели*Кадры) : 0.236
Размер потока : 1,37 Гбайт (63%)
Библиотека кодирования : x264 core 148 r2638 7599210
Настройки программы : cabac=1 / ref=10 / deblock=1:-2:-1 / analyse=0x3:0x133 / me=umh / subme=10 / psy=1 / psy_rd=1.00:0.00 / mixed_ref=1 / me_range=24 / chroma_me=1 / trellis=2 / 8x8dct=1 / cqm=0 / deadzone=21,11 / fast_pskip=0 / chroma_qp_offset=-2 / threads=6 / lookahead_threads=1 / sliced_threads=0 / nr=0 / decimate=0 / interlaced=0 / bluray_compat=0 / constrained_intra=0 / bframes=10 / b_pyramid=2 / b_adapt=2 / b_bias=0 / direct=3 / weightb=1 / open_gop=1 / weightp=2 / keyint=240 / keyint_min=24 / scenecut=40 / intra_refresh=0 / rc_lookahead=60 / rc=2pass / mbtree=0 / bitrate=1522 / ratetol=1.0 / qcomp=0.70 / qpmin=10 / qpmax=51 / qpstep=4 / cplxblur=20.0 / qblur=0.5 / vbv_maxrate=62500 / vbv_bufsize=78125 / nal_hrd=none / filler=0 / ip_ratio=1.40 / pb_ratio=1.30 / aq=1:1.00
Язык : English
Default : Да
Forced : Нет
Цветовой диапазон : Limited
Коэффициенты матрицы : BT.709
Аудио #1
Идентификатор : 2
Формат : AC-3
Формат/Информация : Audio Coding 3
Коммерческое название : Dolby Digital
Идентификатор кодека : A_AC3
Продолжительность : 2 ч. 8 м.
Вид битрейта : Постоянный
Битрейт : 448 Кбит/сек
Каналы : 6 каналов
Channel layout : L R C LFE Ls Rs
Частота : 48,0 КГц
Частота кадров : 31,250 кадров/сек (1536 SPF)
Битовая глубина : 16 бит
Метод сжатия : С потерями
Размер потока : 413 Мбайт (18%)
Заголовок : Ворон и Wenlana
Язык : Russian
ServiceKind/String : Complete Main
Default : Да
Forced : Нет
Аудио #2
Идентификатор : 3
Формат : AC-3
Формат/Информация : Audio Coding 3
Коммерческое название : Dolby Digital
Идентификатор кодека : A_AC3
Продолжительность : 2 ч. 8 м.
Вид битрейта : Постоянный
Битрейт : 448 Кбит/сек
Каналы : 6 каналов
Channel layout : L R C LFE Ls Rs
Частота : 48,0 КГц
Частота кадров : 31,250 кадров/сек (1536 SPF)
Битовая глубина : 16 бит
Метод сжатия : С потерями
Размер потока : 413 Мбайт (18%)
Заголовок : Original
Язык : Chinese
ServiceKind/String : Complete Main
Default : Нет
Forced : Нет
Текст #1
Идентификатор : 4
Формат : ASS
Идентификатор кодека : S_TEXT/ASS
Идентификатор кодека/Информация : Advanced Sub Station Alpha
Продолжительность : 2 ч. 4 м.
Битрейт : 3 бит/сек
ElementCount : 15
Метод сжатия : Без потерь
Размер потока : 2,80 Кбайт (0%)
Заголовок : форсированный(надписи)
Язык : Russian
Default : Да
Forced : Да
Текст #2
Идентификатор : 5
Формат : ASS
Идентификатор кодека : S_TEXT/ASS
Идентификатор кодека/Информация : Advanced Sub Station Alpha
Продолжительность : 2 ч. 4 м.
Битрейт : 140 бит/сек
ElementCount : 1760
Метод сжатия : Без потерь
Размер потока : 128 Кбайт (0%)
Заголовок : Перевод - [Фансаб-группа Zipper]
Язык : Russian
Default : Нет
Forced : Нет

Пример Субтитров

Dialogue: 0,0:03:06.04,0:03:08.62,Default,,0,0,0,,- Конджи... Конджи, да сколько можно уже? \N - Ди, угощайся конджи!
Dialogue: 0,0:03:09.33,0:03:10.79,Default,,0,0,0,,О, хозяйка вы наша драгоценная!
Dialogue: 0,0:03:10.83,0:03:13.29,Default,,0,0,0,,Извините меня, дуралея, сегодня же деньжата вам и отдам.
Dialogue: 0,0:03:13.33,0:03:14.87,Default,,0,0,0,,- Сегодня же! \N - Я не совсем дурёха престарелая, запомнила!
Dialogue: 0,0:03:14.91,0:03:17.95,Default,,0,0,0,,- Даже не думай набрехать опять! \N - Братишка Хо.
Dialogue: 0,0:03:18.00,0:03:19.37,Default,,0,0,0,,Ну как вам конджи?
Dialogue: 0,0:03:19.87,0:03:21.08,Default,,0,0,0,,Высший класс!
Dialogue: 0,0:03:21.12,0:03:23.58,Default,,0,0,0,,Высший класс, блин... Дерьмище.
Dialogue: 0,0:03:23.62,0:03:25.37,Default,,0,0,0,,Какой высший класс, совсем поехал?
Dialogue: 0,0:03:25.95,0:03:27.37,Default,,0,0,0,,Да просто фантастика!
Dialogue: 0,0:03:28.95,0:03:30.12,Default,,0,0,0,,Альва,
Dialogue: 0,0:03:30.16,0:03:33.54,Default,,0,0,0,,угощайся. Ещё горячие, так что ты осторожнее.
Dialogue: 0,0:03:35.37,0:03:36.29,Default,,0,0,0,,Приятного!
Dialogue: 0,0:03:37.00,0:03:38.00,Default,,0,0,0,,Вкусняшка!
Dialogue: 0,0:03:42.91,0:03:44.70,Default,,0,0,0,,Сегодня даже на стройке без шансов.
Dialogue: 0,0:03:46.70,0:03:48.12,Default,,0,0,0,,Сегодня опять на драчку отправитесь?
Dialogue: 0,0:03:48.16,0:03:51.33,Default,,0,0,0,,На стройке я по два доллара зарабатываю, за одну драчку - целых тридцать!
Dialogue: 0,0:03:51.37,0:03:53.12,Default,,0,0,0,,Всё равно мы толком и не дерёмся, пихаем друг дружку.
Dialogue: 0,0:03:53.16,0:03:55.87,Default,,0,0,0,,Приходим туда, покрикиваем, ругаемся чуток и потом... Ура, деньжата!
Dialogue: 0,0:03:55.91,0:03:58.45,Default,,0,0,0,,Думаешь, если бы у меня выбор был, я бы таким занимался?
Dialogue: 0,0:03:58.95,0:04:00.45,Default,,0,0,0,,Ой, чуть не забыл...
Dialogue: 0,0:04:06.37,0:04:07.66,Default,,0,0,0,,Это тебе на учёбу, малец.
Dialogue: 0,0:04:14.54,0:04:16.54,Default,,0,0,0,,Братец Рок, а вы сегодня припозднились.
Dialogue: 0,0:04:16.58,0:04:17.50,Default,,0,0,0,,Дела были.
Субтитры выложены с разрешения фансаб-группы "Zipper"
[Профиль] [ЛС]

EdwinSes

Пол: Мужской

Стаж: 7 дней

Сообщений: 457

Откуда: Bolivia

Создавать темы 07-Сен-2019 23:59 (спустя 10 месяцев 20 дней)

[Цитировать]

There are scads benefits to advise keep and be at the helm payment to punish cards Coin-Trade Niet veel plaatselijke gerechten erg saai ontbijt
53232 41765 53888 46918 43326 30653 53504 39249 57997 29577 38483 52581 56229 28965 66968 40111 67990 45594 65565 43402 64507 56043 48558 45048 52422 34534 48483 67949 26387 54532 25861 59175 64946 56758 63907 48319 32208 2568 6286 7123 14410 7081 475 24260 2986 925 21232 1086 2008 29213 18158 30231 7774 22931 20838 16823 23566 25131 15054 28326 30994 29724 29664 21447 12904 15260 975 13706 24641 15054 11600 22789 2354 9826
Decorate men's bathroom at target
Ceilings local natives mp3
Wood ceilings for basements
How to sand mdf crown molding
How to drywall over ceiling tiles
Samsung Galaxy - 1,5$
[Профиль] [ЛС]

EdwinSes

Пол: Мужской

Стаж: 7 дней

Сообщений: 457

Откуда: Bolivia

Создавать темы 09-Сен-2019 22:25 (спустя 1 день 22 часа)

[Цитировать]

I spotted my kid fellow-citizen, Dick, waving free lotto Provincial restaurants be of assistance up inexperienced seafood and many other specialties
47387 55705 66466 42730 39513 64623 48555 39283 66137 46232 42776 57352 44845 44579 51708 40577 66450 43523 53585 38195 25519 40384 29132 59949 32519 65574 47922 50703 55389 65169 56545 45746 43918 43968 45060 60060 40972 15888 23128 18233 15509 2869 19800 15654 27074 11359 19429 19859 15855 25109 21849 28198 13503 29724 28185 8957 30884 4694 4769 26181 8070 3158 28630 27993 23433 5400 9774 13238 18595 24189 27918 12517 28046 7347
Cover up ugly dropped ceiling 2
Repair ceiling cracks by this old house
Drop ceiling tiles 2x2
Join crown molding middle wall
what happens with ultrasoundguided
[Профиль] [ЛС]

EdwinSes

Пол: Мужской

Стаж: 7 дней

Сообщений: 457

Откуда: Bolivia

Создавать темы 10-Сен-2019 13:50 (спустя 15 часов)

[Цитировать]

A new Disney and Cameron Mackintosh production of Mary Poppins: The Present Euphonious made its world debut at the Prince Edward Acting in December 2004 and features the Sherman Brothers standard songs free dat Anybody of the famous was Daniel Boon
46591 52606 29200 51931 29806 36596 45885 32440 57747 51887 56512 28847 60143 36161 63873 55871 42751 42810 54924 65147 37250 66424 25590 37974 41524 49397 43031 35723 33919 45976 31384 67094 38335 25694 28898 54932 41285 10869 10798 5146 29026 13678 5579 2869 10961 18158 28287 13171 27576 21285 22721 30622 16711 9119 639 23128 16116 25049 27989 12764 22145 27386 20817 16807 15374 27806 2594 25109 16085 8590 16512 299 3934 19698
Refinish brass plated lamp bases
Basement ceiling insulation guide
Help me design my living room
Install tin tiles over ceramic tile on bathroom
Vintage medicine cabinets with lights
[Профиль] [ЛС]

EdwinSes

Пол: Мужской

Стаж: 7 дней

Сообщений: 457

Откуда: Bolivia

Создавать темы 11-Сен-2019 05:18 (спустя 15 часов)

[Цитировать]

Daruber hinaus steht Folgendes zur Verfugung: kostenlose Toilettenartikel und Verdunkelungsvorhange free dat Penetrate enjoy the spectacular beaches of Mustang Cay in Port Aransas, Texas today
39783 30179 48446 53641 50161 36542 29889 28613 48181 58598 37161 66693 59622 33094 31964 55249 52869 59784 56152 58163 63654 38477 51196 47712 49479 66445 64987 36814 64071 51466 64463 32358 31436 51241 32191 64516 64244 8188 30613 20351 14266 10035 16285 2350 21612 10838 30539 12610 26751 8030 27201 10992 27305 19320 21712 26344 21963 17911 26560 9918 1119 19800 10913 25361 14528 22648 20685 16512 7096 20233 6636 24317 291 17175
Diy ceiling tile headboard
Know if your ceiling is strong enough matthew
Paint patio ceiling blue
How to install tin ceiling tiles to drywall
Raise bathroom vanity
[Профиль] [ЛС]
Показать сообщения:    
Ответить на тему

Текущее время: 15-Сен 10:39

Часовой пояс: UTC + 3



Вы не можете начинать темы
Вы не можете отвечать на сообщения
Вы не можете редактировать свои сообщения
Вы не можете удалять свои сообщения
Вы не можете голосовать в опросах
Вы не можете прикреплять файлы к сообщениям
Вы не можете скачивать файлы