Сестры на дороге / Sisters on the Road [2008, Южная Корея, драма, HDTVRip] MVO

Ответить на тему
 
Автор Сообщение

wenlana ®

Пол: Женский

Стаж: 4 года 6 месяцев

Сообщений: 134

Создавать темы 25-Фев-2015 23:12

[Цитировать]

Сестры на дороге / Sisters on the Road- Страна: Южная Корея
Жанр: драма
Год выпуска: 2008
Продолжительность: 01:30:13
Режиссер: Пу Чжи Ён - Boo Ji-Young-В ролях: Шин Мин А - Мён Ын
Гон Хё Чжин - Мён Чжу-Перевод: многоголосый закадровый-Описание: Внезапная смерть матери приводит Мён Ын в родной дом, на остров Чеджу.
Где ее встречает старшая сестра Мён Чжу со своей дочерью Сын А, до сих пор живущие в их старом доме. Вместе с ними, уже более 20 лет, живет и Хён А, ставшая им как родная за все эти годы.
Мучимая комплексом незаконнорожденной, Мён Ын говорит сестре, что после похорон собирается найти своего родного отца.
Из чувства ответственности за младшую сестру Мён Чжу решает сопровождать ее.-Качество видео: HDTVRip
Формат видео: AVI
Видео: 816x352, 23,976 кадра/сек, 1274 Кбит/сек
Аудио: 44,1 КГц, MPEG Audio, 2 канала, 160 Кбит/сек, Язык Русский (в составе контейнера)
Озвучка: Wenlana, Sandairina, Kedra @SOUND-GROUP & Sashi Sutangu@Timecraft-Перевод предоставлен: ФСГ Альянс
Переводчики: MeowBios
Редактор: Plappi

Скриншоты

MediaInfo

Формат : AVI
Формат/Информация : Audio Video Interleave
Размер файла : 931 Мбайт
Продолжительность : 1 ч. 30 м.
Общий поток : 1443 Кбит/сек
Программа кодирования : VirtualDubMod 1.5.10.2 (build 2540/release)
Библиотека кодирования : VirtualDubMod build 2540/release
Видео
Идентификатор : 0
Формат : MPEG-4 Visual
Профиль формата : Advanced Simple@L5
Параметр BVOP формата : 2
Параметр QPel формата : Нет
Параметр GMC формата : Без точки перехода
Параметр матрицы формата : Default (H.263)
Идентификатор кодека : XVID
Идентификатор кодека/Подсказка : XviD
Продолжительность : 1 ч. 30 м.
Битрейт : 1274 Кбит/сек
Ширина : 816 пикселей
Высота : 352 пикселя
Соотношение сторон : 2,35:1
Частота кадров : 23,976 кадра/сек
Цветовое пространство : YUV
Субдискретизация насыщенности : 4:2:0
Битовая глубина : 8 бит
Тип развёртки : Прогрессивная
Метод сжатия : С потерями
Бит/(Пиксели*Кадры) : 0.185
Размер потока : 822 Мбайт (88%)
Библиотека кодирования : XviD 1.2.1 (UTC 2008-12-04)
Аудио
Идентификатор : 1
Формат : MPEG Audio
Версия формата : Version 1
Профиль формата : Layer 3
Режим : Joint stereo
Идентификатор кодека : 55
Идентификатор кодека/Подсказка : MP3
Продолжительность : 1 ч. 30 м.
Вид битрейта : Постоянный
Битрейт : 160 Кбит/сек
Каналы : 2 канала
Частота : 44,1 КГц
Метод сжатия : С потерями
Размер потока : 103 Мбайт (11%)
Выравнивание : Разделение по промежуткам
Продолжительность промежутка : 42 мс. (1,00 видеокадр)
[Профиль] [ЛС]
Показать сообщения:    
Ответить на тему

Текущее время: 15-Сен 11:34

Часовой пояс: UTC + 3



Вы не можете начинать темы
Вы не можете отвечать на сообщения
Вы не можете редактировать свои сообщения
Вы не можете удалять свои сообщения
Вы не можете голосовать в опросах
Вы не можете прикреплять файлы к сообщениям
Вы не можете скачивать файлы