Мужик внутри меня / The Man Inside Me / The Dude In Me / Naeaneui geunom (Кан Хё Джин / Kang Hyo Jin) [2019, Южная Корея, драма, комедия, фантастика, HDTVRip-AVC] DVO + Original Kor + Sub Rus

Ответить на тему
 
Автор Сообщение

BOPOH ®

Пол: Не указан

Стаж: 4 года 6 месяцев

Сообщений: 54

Создавать темы 24-Мар-2019 19:41

[Цитировать]

Мужик внутри меня / The Man Inside Me / The Dude In Me / Naeaneui geunom
Год выпуска: 2019
Страна: Южная Корея
Жанр: драма, комедия, фантастика
Продолжительность: 02:02:23
Перевод: Любительский (двухголосый закадровый)
Cубтитры: pусские
Оригинальная аудиодорожка: Корейский
Режиссер: Кан Хё Джин / Kang Hyo Jin
В ролях: Ра Ми Ран, Ли Су Мин, Ли Чжун Хёк, Ким Кван Гю, Ким Бом Джин, Юн Сон А, Пак Кён Хе, Юн Кён Хо
Описание: Учащийся старшей школы Дон Хён (Чон Джин Ён) однажды падает с крыши и падает на мимо проходящего Пан Су (Пак Сон У), участника преступной организации. Когда герои приходят в себя в больнице, то обнаруживают, что они поменялись телами.
Релиз группы:
Доп. информация:Перевод осуществляла команда фансаб-группы "Zipper"
Перевод, Редакция и тайпсет: Naev.a, Aspide, BiBi & FQ
Озвучивание: Ворон и SARTE
Смотреть обязательно с форсированными субтитрами на надписи!
Прежде чем качать видео и комментировать, скачайте сэмпл и послушайте!

Качество видео: HDRip-AVC - Сэмпл
Исходник: The.Dude.In.Me.2019.1080p.FHDRip.H264.AAC-NonDRM
Формат видео: MKV
Видео: 800x336 (2,40:1), 23,976 fps, x264 ~1957 kbps avg, 0.304 bit/pixel
Аудио: 48 kHz, AC3 Dolby Digital, 2/0 (L,R) ch, ~224 kbps (Русский)
Аудио 2: 48 kHz, AC3 Dolby Digital, 2/0 (L,R) ch, ~224 kbps (Корейский)
Формат субтитров: [форсированный(надписи) / полные]softsub (ass)

Скриншоты

отчет MediaInfo

Формат : Matroska
Версия формата : Version 4
Размер файла : 2,06 Гбайт
Продолжительность : 2 ч. 2 м.
Общий поток : 2407 Кбит/сек
Дата кодирования : UTC 2019-03-24 16:23:52
Программа кодирования : mkvmerge v8.2.0 ('World of Adventure') 32bit
Библиотека кодирования : libebml v1.3.1 + libmatroska v1.4.2
Attachments : FRAMDCN.TTF / YanoneKaffeesatz-Bold.otf
Видео
Идентификатор : 1
Формат : AVC
Формат/Информация : Advanced Video Codec
Профиль формата : High@L4.1
Настройки формата : CABAC / 10 Ref Frames
Параметр CABAC формата : Да
Параметр RefFrames формата : 10 кадров
Идентификатор кодека : V_MPEG4/ISO/AVC
Продолжительность : 2 ч. 2 м.
Битрейт : 1957 Кбит/сек
Ширина : 800 пикселей
Высота : 336 пикселей
Соотношение сторон : 2,40:1
Режим частоты кадров : Постоянный
Частота кадров : 23,976 (24000/1001) кадра/сек
Цветовое пространство : YUV
Субдискретизация насыщенности : 4:2:0
Битовая глубина : 8 бит
Тип развёртки : Прогрессивная
Бит/(Пиксели*Кадры) : 0.304
Размер потока : 1,67 Гбайт (81%)
Библиотека кодирования : x264 core 148 r2638 7599210
Настройки программы : cabac=1 / ref=10 / deblock=1:-2:-1 / analyse=0x3:0x133 / me=umh / subme=10 / psy=1 / psy_rd=1.00:0.00 / mixed_ref=1 / me_range=24 / chroma_me=1 / trellis=2 / 8x8dct=1 / cqm=0 / deadzone=21,11 / fast_pskip=0 / chroma_qp_offset=-2 / threads=10 / lookahead_threads=2 / sliced_threads=0 / nr=0 / decimate=0 / interlaced=0 / bluray_compat=0 / constrained_intra=0 / bframes=10 / b_pyramid=2 / b_adapt=2 / b_bias=0 / direct=3 / weightb=1 / open_gop=1 / weightp=2 / keyint=240 / keyint_min=23 / scenecut=40 / intra_refresh=0 / rc_lookahead=60 / rc=2pass / mbtree=0 / bitrate=1957 / ratetol=1.0 / qcomp=0.70 / qpmin=10 / qpmax=51 / qpstep=4 / cplxblur=20.0 / qblur=0.5 / vbv_maxrate=62500 / vbv_bufsize=78125 / nal_hrd=none / filler=0 / ip_ratio=1.40 / pb_ratio=1.30 / aq=1:1.00
Язык : English
Default : Да
Forced : Нет
Цветовой диапазон : Limited
Коэффициенты матрицы : BT.709
Аудио #1
Идентификатор : 2
Формат : AC-3
Формат/Информация : Audio Coding 3
Коммерческое название : Dolby Digital
Идентификатор кодека : A_AC3
Продолжительность : 2 ч. 2 м.
Вид битрейта : Постоянный
Битрейт : 224 Кбит/сек
Каналы : 2 канала
Channel layout : L R
Частота : 48,0 КГц
Частота кадров : 31,250 кадров/сек (1536 SPF)
Битовая глубина : 16 бит
Метод сжатия : С потерями
Размер потока : 196 Мбайт (9%)
Заголовок : Ворон и SARTE
Язык : Russian
ServiceKind/String : Complete Main
Default : Да
Forced : Нет
Аудио #2
Идентификатор : 3
Формат : AC-3
Формат/Информация : Audio Coding 3
Коммерческое название : Dolby Digital
Идентификатор кодека : A_AC3
Продолжительность : 2 ч. 2 м.
Вид битрейта : Постоянный
Битрейт : 224 Кбит/сек
Каналы : 2 канала
Channel layout : L R
Частота : 48,0 КГц
Частота кадров : 31,250 кадров/сек (1536 SPF)
Битовая глубина : 16 бит
Метод сжатия : С потерями
Размер потока : 196 Мбайт (9%)
Заголовок : Original
Язык : Korean
ServiceKind/String : Complete Main
Default : Нет
Forced : Нет
Текст #1
Идентификатор : 4
Формат : ASS
Идентификатор кодека : S_TEXT/ASS
Идентификатор кодека/Информация : Advanced Sub Station Alpha
Продолжительность : 1 ч. 55 м.
Битрейт : 0 бит/сек
ElementCount : 6
Метод сжатия : Без потерь
Размер потока : 850 байт (0%)
Заголовок : форсированный(надписи)
Язык : Russian
Default : Да
Forced : Да
Текст #2
Идентификатор : 5
Формат : ASS
Идентификатор кодека : S_TEXT/ASS
Идентификатор кодека/Информация : Advanced Sub Station Alpha
Продолжительность : 1 ч. 58 м.
Битрейт : 99 бит/сек
ElementCount : 1360
Метод сжатия : Без потерь
Размер потока : 86,6 Кбайт (0%)
Заголовок : Перевод - [Фансаб-группа Zipper]
Язык : Russian
Default : Нет
Forced : Нет

Пример Субтитров

Dialogue: 0,0:02:37.63,0:02:39.88,Default,,0,0,0,,Папа сказал, что не отдаст мне галерею.
Dialogue: 0,0:02:42.14,0:02:43.14,Default,,0,0,0,,Бесит.
Dialogue: 0,0:02:45.72,0:02:46.89,Default,,0,0,0,,И что дальше?
Dialogue: 0,0:02:47.60,0:02:49.98,Default,,0,0,0,,Я же просила не носить эти зажимы для галстуков.
Dialogue: 0,0:02:51.02,0:02:52.52,Default,,0,0,0,,Здравствуйте, хённим.
Dialogue: 0,0:03:01.36,0:03:05.28,Default,,0,0,0,,Скажи, что мы хотим вложить деньги в шахты в Узбекистане.
Dialogue: 0,0:03:05.70,0:03:08.66,Default,,0,0,0,,Проверь, чтобы доля была 30%.
Dialogue: 0,0:03:09.16,0:03:12.21,Default,,0,0,0,,Создать на месте новую фирму - не проблема.
Dialogue: 0,0:03:12.63,0:03:15.50,Default,,0,0,0,,Так что не беспокойся и приступай к работе.
Dialogue: 0,0:03:24.60,0:03:25.26,Default,,0,0,0,,Что?
Dialogue: 0,0:03:25.60,0:03:28.10,Default,,0,0,0,,Я насчет вчерашнего, про район в Чонун-доне.
Dialogue: 0,0:03:28.22,0:03:33.60,Default,,0,0,0,,Новые жильцы почти въехали, но протестующие ещё есть.
Dialogue: 0,0:03:37.57,0:03:38.48,Default,,0,0,0,,Чхве,
Dialogue: 0,0:03:39.57,0:03:40.99,Default,,0,0,0,,сколько ты уже в этой сфере?
Dialogue: 0,0:03:42.61,0:03:45.62,Default,,0,0,0,,21-ый год пошел.
Dialogue: 0,0:03:47.74,0:03:51.79,Default,,0,0,0,,Совсем не доходит?
Dialogue: 0,0:03:52.04,0:03:54.00,Default,,0,0,0,,Бан.
Dialogue: 0,0:03:58.55,0:04:00.84,Default,,0,0,0,,Забери их, и разберитесь уже наконец со всем.
Dialogue: 0,0:04:01.76,0:04:02.84,Default,,0,0,0,,Будет сделано.
Dialogue: 0,0:04:16.61,0:04:18.19,Default,,0,0,0,,Что-то случилось?
Dialogue: 0,0:04:18.65,0:04:20.32,Default,,0,0,0,,Нет, ничего.
Dialogue: 0,0:04:20.53,0:04:22.65,Default,,0,0,0,,Я схожу покурю.
Dialogue: 0,0:04:26.45,0:04:29.74,Default,,0,0,0,,И что за цирк они устроили?
Dialogue: 0,0:04:30.70,0:04:32.87,Default,,0,0,0,,Охотник и добыча - это разные вещи, разве нет?
Dialogue: 0,0:04:33.87,0:04:35.75,Default,,0,0,0,,Ким ДжонГи?
Dialogue: 0,0:04:37.33,0:04:38.17,Default,,0,0,0,,Ручку вверх.
Субтитры выложены с разрешения фансаб-группы "Zipper"
[Профиль] [ЛС]

EdwinSes

Пол: Мужской

Стаж: 7 дней

Сообщений: 457

Откуда: Bolivia

Создавать темы 08-Сен-2019 20:56 (спустя 5 месяцев 15 дней)

[Цитировать]

Theatre Museum Apportion 2010 Career Victory Endow with presented on May 17, 2010 at The Players Baton in Unexplored York City Coin-Trade Late-model achievements In 2000, the Sherman Brothers wrote the furnish amiable scoop to The Tigger Talkie which achieved legions chestnut prominence in both overwrought strike room and video sales
28176 41889 59344 27061 31259 26252 42460 36064 34898 40008 32476 32337 30983 68082 48852 31510 37593 53688 65042 46383 66682 49512 27245 31050 37832 49570 61625 67720 37758 50109 60553 35866 54667 64999 52337 41188 41589 30201 26767 209 28236 25692 13195 15072 14929 30644 26055 3727 27273 25747 3841 5579 19484 25451 4949 7394 19401 22899 26798 16085 26613 5683 21803 12517 22721 14186 23959 19155 24210 1979 23543 22865 18515 15432
Interior design cottage style kitchen
the best nuclear engineering schools
Suspended ceiling system types
Get up there to paint high vaulted fireplace
cell phone radiation facts
[Профиль] [ЛС]

EdwinSes

Пол: Мужской

Стаж: 7 дней

Сообщений: 457

Откуда: Bolivia

Создавать темы 09-Сен-2019 08:31 (спустя 11 часов)

[Цитировать]

Left to reason (Towards): Poppy Lee Friar, Jack Montgomery, Perry Millward, Harry Stott, Ben Watton, Jake Catterall, Nicola Bowman data yard It transfer be on sale on the Robert Sherman Art entanglement site soon
53733 62071 44528 58671 45918 62853 61201 65039 43012 29754 25418 40285 35325 58585 25551 53056 53631 34005 58176 52151 58684 59565 45448 52680 29314 48856 49226 42363 47749 56082 61963 66500 30367 55031 41878 33535 65721 25992 22572 10080 17847 27201 2008 21698 12305 21285 18657 8217 4475 2289 7498 14923 203 12544 7957 861 21549 25718 27753 27576 24162 21883 19429 18515 29171 5903 19631 27580 18831 2870 21890 734 18595 20929
housing grants for single women in
The impact of soundproofing ceiling for under decks
Different ways of spackling your ceiling fan
Easy ways to soundproof ceiling panels
Coleus canin a plant
[Профиль] [ЛС]

EdwinSes

Пол: Мужской

Стаж: 7 дней

Сообщений: 457

Откуда: Bolivia

Создавать темы 09-Сен-2019 10:50 (спустя 2 часа 19 минут)

[Цитировать]

A new Disney and Cameron Mackintosh origination of Mary Poppins: The Stage Tuneful made its fraternity premiere at the Prince Edward Field of action in December 2004 and features the Sherman Brothers standard songs data yard Later when the war was upward of, he became a merchant and a surveyor
42358 55384 65946 65837 63425 59514 36523 56745 54247 46775 39775 29931 43967 42189 60273 44160 48613 66485 56319 28764 51704 38502 53468 53851 66804 50986 55546 57729 67001 59476 48013 29180 42700 60773 59583 62976 30222 28097 28987 15785 10710 10526 20497 108 23263 9599 14376 22931 7284 360 27027 5642 7682 13569 5912 16207 25293 3201 15054 4795 8738 11076 6163 27581 27947 26710 25585 22789 4175 25360 27273 26344 3618 30955
Decorating with high ceilings pictures of butterflies
Frame ceiling designs
Definition of beam ceiling treatment options
Decorating bathroom baskets towels
Replica tiffany lamps wholesale
[Профиль] [ЛС]
Показать сообщения:    
Ответить на тему

Текущее время: 15-Сен 10:46

Часовой пояс: UTC + 3



Вы не можете начинать темы
Вы не можете отвечать на сообщения
Вы не можете редактировать свои сообщения
Вы не можете удалять свои сообщения
Вы не можете голосовать в опросах
Вы не можете прикреплять файлы к сообщениям
Вы не можете скачивать файлы