В плену любви / Defendant of Love [14 из 14] [2008, мелодрама, DTVRip] [VO]

Страницы :  1, 2, 3, 4, 5  След.

Ответить на тему
 
Автор Сообщение

wenlana ®

Пол: Женский

Стаж: 4 года 6 месяцев

Сообщений: 134

Создавать темы 26-Фев-2015 01:35

[Цитировать]

В плену любви / Defendant of Love

Страна: Таиланд
Год выпуска: 2008
Жанр: мелодрама
Продолжительность: 14 серий по 1:20
Режиссер: Krit Sukramongkon-В ролях:
Atichart Chumnanont as Harit (Харит)
Taksaorn Paksukcharoen as Soraya (Сорайя)
Rilanee Sripen (Joy) as Sansanee (Сансани)
Chatayodom Hiranyatsathiti (Chai) as Tawaschai (Таваши)-Перевод: Одноголосая озвучка-Описание: Харит - сын богатого бизнесмена, в связи со скоропостижной смертью отца, возвращается из за границы домой в Таиланд.
На его плечи ложится забота о младшем брате, а также руководство фабрикой по производству жемчуга.
Но после того, как младший брат (Харин) кончает жизнь самоубийством, из за разрыва со своей девушкой (Сансани), он одержим мыслю о мести.
Для этой коварной цели он похищает девушку, но по иронии судьбы на месте Сансани оказывается ее кузина Сорайя, которая жила в доме Сансани.
В знак благодарности она решает взять всю тяжесть вины на себя и понести наказание за свою сестру, так как обязана ей своей жизнью.
Слишком поздно Харит осознает, что похитил не ту девушку, так как в его сердце уже живет любовь...-Качество видео: DTVRip
Формат: AVI
Видео: 1-2 серии XVID, 720x576, 25,000 кадров/сек, 1965 Кбит/сек
Аудио: AC-3, 48,0 КГц, 2 канала, 192 Кбит/сек Язык Русский (в составе контейнера)-Перевод предоставлен: Фансаб-группой Альянс
Переводчики: 1 серия Салли
2-14 серии - msv24
Редактор: 1 серия Деркета-Озвучка: одноголосая Wenlana @SOUND-GROUP

Скриншоты

MediaInfo

Формат : AVI
Формат/Информация : Audio Video Interleave
Размер файла : 1,18 Гбайт
Продолжительность : 1 ч. 18 м.
Общий поток : 2166 Кбит/сек
Программа кодирования : VirtualDubMod 1.5.10.2 (build 2542/release)
Библиотека кодирования : VirtualDubMod build 2542/release
Видео
Идентификатор : 0
Формат : MPEG-4 Visual
Профиль формата : Advanced Simple@L5
Параметр BVOP формата : 2
Параметр QPel формата : Нет
Параметр GMC формата : Без точки перехода
Параметр матрицы формата : Default (H.263)
Режим смешивания : Сжатый битовый поток
Идентификатор кодека : XVID
Идентификатор кодека/Подсказка : XviD
Продолжительность : 1 ч. 18 м.
Битрейт : 1965 Кбит/сек
Ширина : 720 пикселей
Высота : 576 пикселей
Соотношение сторон : 5:4
Частота кадров : 25,000 кадров/сек
Стандарт вещания : PAL
Цветовое пространство : YUV
Субдискретизация насыщенности : 4:2:0
Битовая глубина : 8 бит
Тип развёртки : Прогрессивная
Метод сжатия : С потерями
Бит/(Пиксели*Кадры) : 0.189
Размер потока : 1,07 Гбайт (91%)
Библиотека кодирования : XviD 1.2.0.dev47 (UTC 2006-11-01)
Аудио
Идентификатор : 1
Формат : AC-3
Формат/Информация : Audio Coding 3
Расширение режима : CM (complete main)
Параметр Endianness формата : Big
Идентификатор кодека : 2000
Продолжительность : 1 ч. 18 м.
Вид битрейта : Постоянный
Битрейт : 192 Кбит/сек
Каналы : 2 канала
Расположение каналов : Front: L R
Частота : 48,0 КГц
Битовая глубина : 16 бит
Метод сжатия : С потерями
Размер потока : 107 Мбайт (9%)
Выравнивание : Разделение по промежуткам
Продолжительность промежутка : 40 мс. (1,00 видеокадр)
Время предзагрузки промежутка : 500 мс.


Последний раз редактировалось: wenlana (2016-06-12 13:09), всего редактировалось 10 раз(а)
[Профиль] [ЛС]

wenlana ®

Пол: Женский

Стаж: 4 года 6 месяцев

Сообщений: 134

Создавать темы 29-Мар-2015 17:55 (спустя 1 месяц 3 дня)

[Цитировать]

Добавлена 4- я серия
[Профиль] [ЛС]

wenlana ®

Пол: Женский

Стаж: 4 года 6 месяцев

Сообщений: 134

Создавать темы 31-Мар-2015 11:35 (спустя 1 день 17 часов)

[Цитировать]

Добавлена 5- я серия
[Профиль] [ЛС]

wenlana ®

Пол: Женский

Стаж: 4 года 6 месяцев

Сообщений: 134

Создавать темы 02-Май-2015 18:06 (спустя 1 месяц 2 дня)

[Цитировать]

Добавлена 6- я серия
[Профиль] [ЛС]

wenlana ®

Пол: Женский

Стаж: 4 года 6 месяцев

Сообщений: 134

Создавать темы 04-Май-2015 00:02 (спустя 1 день 5 часов)

[Цитировать]

Добавлена 7- я серия
[Профиль] [ЛС]

7He7en7

Пол: Не указан

Стаж: 4 года 1 месяц

Сообщений: 1

Создавать темы 11-Авг-2015 20:59 (спустя 3 месяца 7 дней)

[Цитировать]

остальные серии ждать?
[Профиль] [ЛС]

wenlana ®

Пол: Женский

Стаж: 4 года 6 месяцев

Сообщений: 134

Создавать темы 28-Ноя-2015 20:17 (спустя 3 месяца 16 дней)

[Цитировать]

Добавлена 8- я серия
[Профиль] [ЛС]

wenlana ®

Пол: Женский

Стаж: 4 года 6 месяцев

Сообщений: 134

Создавать темы 29-Ноя-2015 23:24 (спустя 1 день 3 часа)

[Цитировать]

Добавлена 9- я серия
[Профиль] [ЛС]

wenlana ®

Пол: Женский

Стаж: 4 года 6 месяцев

Сообщений: 134

Создавать темы 20-Дек-2015 06:17 (спустя 20 дней)

[Цитировать]

Добавлена 10- я серия
[Профиль] [ЛС]

wenlana ®

Пол: Женский

Стаж: 4 года 6 месяцев

Сообщений: 134

Создавать темы 09-Фев-2016 12:33 (спустя 1 месяц 20 дней)

[Цитировать]

Добавлена 11- я серия
[Профиль] [ЛС]

wenlana ®

Пол: Женский

Стаж: 4 года 6 месяцев

Сообщений: 134

Создавать темы 19-Фев-2016 16:32 (спустя 10 дней)

[Цитировать]

Добавлена 12- я серия
[Профиль] [ЛС]

wenlana ®

Пол: Женский

Стаж: 4 года 6 месяцев

Сообщений: 134

Создавать темы 04-Май-2016 21:38 (спустя 2 месяца 14 дней)

[Цитировать]

Добавлена 13- я серия
[Профиль] [ЛС]

wenlana ®

Пол: Женский

Стаж: 4 года 6 месяцев

Сообщений: 134

Создавать темы 12-Июн-2016 12:38 (спустя 1 месяц 7 дней)

[Цитировать]

Добавлена заключительная 14- я серия
[Профиль] [ЛС]

simka

Пол: Не указан

Стаж: 3 года 11 месяцев

Сообщений: 5

Создавать темы 12-Июн-2016 18:25 (спустя 5 часов)

[Цитировать]

Спасибо с завершениям ab
Как сериал?
Пока понравилися лакорны: Моя любимая злодейка / Nang Rai Tee Ruk и Кубик-рубик / Cubic
[Профиль] [ЛС]

wenlana ®

Пол: Женский

Стаж: 4 года 6 месяцев

Сообщений: 134

Создавать темы 15-Июн-2016 22:51 (спустя 3 дня)

[Цитировать]

simka, спасибо, как сериал надо спрашивать у вас, а мой это самый любимый лакорн bk
[Профиль] [ЛС]
Показать сообщения:    
Ответить на тему

Текущее время: 15-Сен 11:14

Часовой пояс: UTC + 3



Вы не можете начинать темы
Вы не можете отвечать на сообщения
Вы не можете редактировать свои сообщения
Вы не можете удалять свои сообщения
Вы не можете голосовать в опросах
Вы не можете прикреплять файлы к сообщениям
Вы не можете скачивать файлы