Доктор Фрост / Dr. Frost [10/10] [2014, психология, криминал, драма, HDTVRip] [720p] DVO (SOUND-GROUP)

Ответить на тему
 
Автор Сообщение

wenlana ®

Пол: Женский

Стаж: 4 года 6 месяцев

Сообщений: 134

Создавать темы 26-Фев-2015 20:44

[Цитировать]

Доктор Фрост / Dr. Frost
Страна: Южная Корея
Год выпуска: 2014
Жанр: психология, криминал, драма
Продолжительность: 01 из 10
Режиссер: Sung Yong-Il-В ролях:
Сон Чхан Ый - профессор Пэк Нам Бон (доктор Фрост)
Чон Ын Чхэ - Юн Сон А
Ли Юн Чжи - профессор Сон
Сон Чи Ру - детектив Нам Тхэ Бон
Чхве Чон У - Чон Сан Вон (декан факультета психологии)-Перевод: Двухголосая озвучка-Описание: В центре истории - доктор психологии Пэк Нам Бон. Он настоящий гений, однако из-за перенесенной в детстве операции на мозге не способен сопереживать. За свою неэмоциональность он получает прозвище "доктор Фрост".
Благодаря тонкому уму и удивительной способности подмечать мелочи, он становится помощником полиции при раскрытии преступлений.
Дорама основана на популярной веб-манхве.-Неотключаемые субтитры: Полухардсаб
Русские субтитры: Нет
Оригинальная аудиодорожка: Нет
Качество видео: HDTVRip
Разрешение: 720p
Формат: AVI
Видео: 1280x720, 29.970 кадров/сек, x264, 3000 Кбит/сек
Аудио: 48,0 КГц, MP3, 2 канала, 128 Кбит/сек Язык Русский (в составе контейнера)
Перевод предоставлен: Фансаб-группой Альянс
Переводчик: Loveless
Редактор: Charlie

Тайминг и тайпсетт: Mar222ina
Постер: Petra-Озвучка: Wenlana и G_M @SOUND-GROUP

Скриншоты

MediaInfo

Формат : AVI
Формат/Информация : Audio Video Interleave
Размер файла : 1,29 Гбайт
Продолжительность : 58 м.
Общий поток : 3147 Кбит/сек
Программа кодирования : VirtualDubMod 1.5.10.2 (build 2542/release)
Библиотека кодирования : VirtualDubMod build 2542/release
Видео
Идентификатор : 0
Формат : AVC
Формат/Информация : Advanced Video Codec
Профиль формата : High@L3.1
Параметр CABAC формата : Да
Параметр ReFrames формата : 4 кадра
Идентификатор кодека : H264
Продолжительность : 58 м.
Битрейт : 3000 Кбит/сек
Ширина : 1280 пикселей
Высота : 720 пикселей
Соотношение сторон : 16:9
Режим частоты кадров : Переменный
Частота кадров : 29,970 кадров/сек
Цветовое пространство : YUV
Субдискретизация насыщенности : 4:2:0
Битовая глубина : 8 бит
Тип развёртки : Прогрессивная
Бит/(Пиксели*Кадры) : 0.109
Размер потока : 1,23 Гбайт (96%)
Библиотека кодирования : x264 core 142 r2479 dd79a61
Настройки программы : cabac=1 / ref=1 / deblock=1:0:0 / analyse=0x3:0x113 / me=hex / subme=2 / psy=1 / psy_rd=1.00:0.00 / mixed_ref=0 / me_range=16 / chroma_me=1 / trellis=0 / 8x8dct=1 / cqm=0 / deadzone=21,11 / fast_pskip=1 / chroma_qp_offset=0 / threads=3 / lookahead_threads=1 / sliced_threads=0 / nr=0 / decimate=1 / interlaced=0 / bluray_compat=0 / constrained_intra=0 / bframes=3 / b_pyramid=2 / b_adapt=1 / b_bias=0 / direct=1 / weightb=1 / open_gop=0 / weightp=1 / keyint=250 / keyint_min=25 / scenecut=40 / intra_refresh=0 / rc_lookahead=10 / rc=abr / mbtree=1 / bitrate=3000 / ratetol=1.0 / qcomp=0.60 / qpmin=0 / qpmax=69 / qpstep=4 / ip_ratio=1.40 / aq=1:1.00
Аудио
Идентификатор : 1
Формат : MPEG Audio
Версия формата : Version 1
Профиль формата : Layer 3
Режим : Joint stereo
Расширение режима : MS Stereo
Идентификатор кодека : 55
Идентификатор кодека/Подсказка : MP3
Продолжительность : 58 м.
Вид битрейта : Постоянный
Битрейт : 128 Кбит/сек
Каналы : 2 канала
Частота : 48,0 КГц
Метод сжатия : С потерями
Размер потока : 53,7 Мбайт (4%)
Выравнивание : Соединение по промежуткам
Продолжительность промежутка : 33 мс. (1,00 видеокадр)


Последний раз редактировалось: wenlana (2015-04-28 00:07), всего редактировалось 6 раз(а)
[Профиль] [ЛС]

wenlana ®

Пол: Женский

Стаж: 4 года 6 месяцев

Сообщений: 134

Создавать темы 08-Мар-2015 21:02 (спустя 10 дней)

[Цитировать]

Добавлена 3- я серия
[Профиль] [ЛС]

smehanet

Пол: Не указан

Стаж: 4 года 6 месяцев

Сообщений: 1

Создавать темы 14-Мар-2015 23:58 (спустя 6 дней)

[Цитировать]

Спасибо! А подскажите, пожалуйста, как скоро (примерно) будет озвучена полностью вся дорама?
[Профиль] [ЛС]

wenlana ®

Пол: Женский

Стаж: 4 года 6 месяцев

Сообщений: 134

Создавать темы 15-Мар-2015 00:37 (спустя 38 минут)

[Цитировать]

smehanet, конкретных сроков сказать не могу
[Профиль] [ЛС]

wenlana ®

Пол: Женский

Стаж: 4 года 6 месяцев

Сообщений: 134

Создавать темы 27-Мар-2015 17:36 (спустя 12 дней)

[Цитировать]

Добавлена 4- я серия
[Профиль] [ЛС]

Sandairina

Пол: Женский

Стаж: 4 года 6 месяцев

Сообщений: 68

Создавать темы 27-Мар-2015 19:30 (спустя 1 час 53 минуты)

[Цитировать]

[Профиль] [ЛС]

wenlana ®

Пол: Женский

Стаж: 4 года 6 месяцев

Сообщений: 134

Создавать темы 03-Апр-2015 17:06 (спустя 6 дней)

[Цитировать]

Добавлена 5- я серия
[Профиль] [ЛС]

wenlana ®

Пол: Женский

Стаж: 4 года 6 месяцев

Сообщений: 134

Создавать темы 06-Апр-2015 02:11 (спустя 2 дня 9 часов)

[Цитировать]

Добавлена 6- я серия
[Профиль] [ЛС]

wenlana ®

Пол: Женский

Стаж: 4 года 6 месяцев

Сообщений: 134

Создавать темы 14-Апр-2015 22:04 (спустя 8 дней)

[Цитировать]

Добавлены 7 и 8- я серии
[Профиль] [ЛС]

wenlana ®

Пол: Женский

Стаж: 4 года 6 месяцев

Сообщений: 134

Создавать темы 26-Апр-2015 23:47 (спустя 12 дней)

[Цитировать]

Добавлена 9- я серия
[Профиль] [ЛС]

wenlana ®

Пол: Женский

Стаж: 4 года 6 месяцев

Сообщений: 134

Создавать темы 28-Апр-2015 00:07 (спустя 1 день)

[Цитировать]

Добавлена заключительная 10 - я серия
[Профиль] [ЛС]

Sandairina

Пол: Женский

Стаж: 4 года 6 месяцев

Сообщений: 68

Создавать темы 28-Апр-2015 14:38 (спустя 14 часов)

[Цитировать]

С окончанием проекта!
[Профиль] [ЛС]

Создавать темы 04-Июн-2017 15:57 (спустя 2 года 1 месяц)

Топик был перенесен из форума Корейские дорамы в форум Архив
wenlana
 
Показать сообщения:    
Ответить на тему

Текущее время: 15-Сен 10:39

Часовой пояс: UTC + 3



Вы не можете начинать темы
Вы не можете отвечать на сообщения
Вы не можете редактировать свои сообщения
Вы не можете удалять свои сообщения
Вы не можете голосовать в опросах
Вы не можете прикреплять файлы к сообщениям
Вы не можете скачивать файлы