Тайная любовь /Секрет / Secret Love [16 из 16] [2013, мелодрама, романтика, HDTVRip] [RAW] [720p] [DVO]

Страницы :  1, 2, 3  След.

Ответить на тему
 
Автор Сообщение

wenlana ®

Пол: Женский

Стаж: 4 года 6 месяцев

Сообщений: 134

Создавать темы 26-Фев-2015 21:39

[Цитировать]

Секрет / Тайная любовь / Secret Love- Страна: Южная Корея
Год выпуска: 2013
Жанр: мелодрама, романтика
Продолжительность: 16 серий по 60 минут
Режиссер: Ли Ын Бок, Пэк Сан Хун-В ролях:
Hwang Jung Eum в роли Kang Yoo Jung
Ji Sung в роли Jo Min Hyuk
Bae Soo Bin в роли Ahn Do Hoon
Lee Da Hee в роли Shin Se Yeon
-Перевод: Двухголосая озвучка-Описание: Чо Мин Хёк родился в обеспеченной семье. Все при нем, и внешность, и ум, и деньги, кроме душевности. Его девушка погибла в результате автомобильной аварии.
Кан Ю Чжон посадили в тюрьму за аварию, в которой погибла девушка Мин Хёка. На самом деле за рулем был ее парень, Ан До Хун. Она взяла вину на себя, но жених предал ее.
Шин Сэ Ён страдает от безответной любви, потому что не может получить того человека, которого хочет.
Вся трагичность ситуации заключается в том, что Мин Хёк и Ю Чжон влюбляются друг в друга.-Качество видео: HDTVRip
Формат: AVI
Видео: 1280x720, 29.970 кадров/сек, H.264, 3000 Кбит/сек
Аудио: 48,0 КГц, MP3, 2 канала, 192 Кбит/сек Язык Русский (в составе контейнера)
Озвучка: Wenlana@Sound Group & Daker@4AnimeTV
с 13 серии Wenlana@Sound Group & Ворон@Batafurai Team
Работа со звуком: Fondorn-Перевод предоставлен: ФСГ Bears
Переводчики: AnnyZen, Pearly_owl, TeryNa, Пряня, Volha
Редактор: Volha, Skvoznayk

Скриншоты

MediaInfo

Формат : AVI
Формат/Информация : Audio Video Interleave
Размер файла : 1,25 Гбайт
Продолжительность : 1 ч. 2 м.
Общий поток : 2855 Кбит/сек
Программа кодирования : VirtualDubMod 1.5.10.2 (build 2540/release)
Библиотека кодирования : VirtualDubMod build 2540/release
Видео
Идентификатор : 0
Формат : AVC
Формат/Информация : Advanced Video Codec
Профиль формата : High@L5.1
Параметр CABAC формата : Да
Параметр ReFrames формата : 4 кадра
Идентификатор кодека : H264
Продолжительность : 1 ч. 2 м.
Битрейт : 2651 Кбит/сек
Номинальный битрейт : 3000 Кбит/сек
Ширина : 1280 пикселей
Высота : 720 пикселей
Соотношение сторон : 16:9
Режим частоты кадров : Переменный
Частота кадров : 29,970 кадров/сек
Цветовое пространство : YUV
Субдискретизация насыщенности : 4:2:0
Битовая глубина : 8 бит
Тип развёртки : Прогрессивная
Бит/(Пиксели*Кадры) : 0.096
Размер потока : 1,17 Гбайт (93%)
Библиотека кодирования : x264 core 112
Настройки программы : cabac=1 / ref=3 / deblock=1:-1:-1 / analyse=0x3:0x113 / me=hex / subme=6 / psy=1 / psy_rd=1.00:1.00 / mixed_ref=1 / me_range=16 / chroma_me=1 / trellis=1 / 8x8dct=1 / cqm=0 / deadzone=21,11 / fast_pskip=0 / chroma_qp_offset=-4 / threads=12 / sliced_threads=0 / nr=0 / decimate=1 / interlaced=0 / constrained_intra=0 / bframes=3 / b_pyramid=2 / b_adapt=1 / b_bias=1 / direct=3 / weightb=1 / open_gop=0 / weightp=2 / keyint=299 / keyint_min=25 / scenecut=1 / intra_refresh=0 / rc_lookahead=40 / rc=cbr / mbtree=1 / bitrate=3000 / ratetol=1.0 / qcomp=0.60 / qpmin=1 / qpmax=51 / qpstep=4 / vbv_maxrate=3000 / vbv_bufsize=1950 / ip_ratio=1.40 / aq=1:1.00 / nal_hrd=none
Аудио
Идентификатор : 1
Формат : MPEG Audio
Версия формата : Version 1
Профиль формата : Layer 3
Режим : Joint stereo
Идентификатор кодека : 55
Идентификатор кодека/Подсказка : MP3
Продолжительность : 1 ч. 2 м.
Вид битрейта : Постоянный
Битрейт : 192 Кбит/сек
Каналы : 2 канала
Частота : 48,0 КГц
Метод сжатия : С потерями
Размер потока : 86,4 Мбайт (7%)
Выравнивание : Соединение по промежуткам
Продолжительность промежутка : 33 мс. (1,00 видеокадр)


Последний раз редактировалось: wenlana (2019-07-24 16:06), всего редактировалось 5 раз(а)
[Профиль] [ЛС]

Наташа

Пол: Не указан

Стаж: 2 месяца 1 день

Сообщений: 1

Создавать темы 13-Июл-2019 19:16 (спустя 4 года 4 месяца)

[Цитировать]

[img][/img]
[Профиль] [ЛС]

Larrytar

Пол: Мужской

Стаж: 12 дней

Сообщений: 240

Откуда: Greece

Создавать темы 06-Сен-2019 11:32 (спустя 1 месяц 23 дня)

[Цитировать]

buy generic lasix lasix 100 mg <a href=http://lolasix.info/#>generic lasix</a>
[Профиль] [ЛС]

Larrytar

Пол: Мужской

Стаж: 12 дней

Сообщений: 240

Откуда: Greece

Создавать темы 06-Сен-2019 11:33 (спустя 35 секунд)

[Цитировать]

buy lasix uk buy lasix uk <a href=http://lolasix.info/#>purchase lasix online no prescription</a>
[Профиль] [ЛС]

Larrytar

Пол: Мужской

Стаж: 12 дней

Сообщений: 240

Откуда: Greece

Создавать темы 06-Сен-2019 11:33 (спустя 24 секунды)

[Цитировать]

lasix cheap buy lasix cheap <a href=http://lolasix.info/#>buy lasix no prescription</a>
[Профиль] [ЛС]

Larrytar

Пол: Мужской

Стаж: 12 дней

Сообщений: 240

Откуда: Greece

Создавать темы 06-Сен-2019 11:34 (спустя 31 секунда)

[Цитировать]

order lasix purchase lasix <a href=http://lolasix.info/#>buy lasix cheap</a>
[Профиль] [ЛС]

Larrytar

Пол: Мужской

Стаж: 12 дней

Сообщений: 240

Откуда: Greece

Создавать темы 06-Сен-2019 11:34 (спустя 30 секунд)

[Цитировать]

buy furosemide online buy lasix online <a href=http://lolasix.info/#>purchase lasix online no prescription</a>
[Профиль] [ЛС]

Larrytar

Пол: Мужской

Стаж: 12 дней

Сообщений: 240

Откуда: Greece

Создавать темы 06-Сен-2019 11:35 (спустя 23 секунды)

[Цитировать]

buy lasix cheap order lasix <a href=http://lolasix.info/#>buy lasix no prescription</a>
[Профиль] [ЛС]

Larrytar

Пол: Мужской

Стаж: 12 дней

Сообщений: 240

Откуда: Greece

Создавать темы 06-Сен-2019 11:35 (спустя 30 секунд)

[Цитировать]

buy furosemide buy lasix <a href=http://lolasix.info/#>lasix 100 mg</a>
[Профиль] [ЛС]

Larrytar

Пол: Мужской

Стаж: 12 дней

Сообщений: 240

Откуда: Greece

Создавать темы 06-Сен-2019 11:36 (спустя 32 секунды)

[Цитировать]

lasix generic buy furosemide pills <a href=http://lolasix.info/#>furosemide</a>
[Профиль] [ЛС]

Larrytar

Пол: Мужской

Стаж: 12 дней

Сообщений: 240

Откуда: Greece

Создавать темы 06-Сен-2019 11:36 (спустя 32 секунды)

[Цитировать]

buy furosemide no prescription order lasix <a href=http://lolasix.info/#>buy lasix online without prescription</a>
[Профиль] [ЛС]

Larrytar

Пол: Мужской

Стаж: 12 дней

Сообщений: 240

Откуда: Greece

Создавать темы 06-Сен-2019 11:37 (спустя 25 секунд)

[Цитировать]

generic lasix buy lasix no rx <a href=http://lolasix.info/#>lasix 40 mg</a>
[Профиль] [ЛС]

Larrytar

Пол: Мужской

Стаж: 12 дней

Сообщений: 240

Откуда: Greece

Создавать темы 06-Сен-2019 11:37 (спустя 35 секунд)

[Цитировать]

buy lasix cheap purchase lasix online no prescription <a href=http://lolasix.info/#>buy furosemide</a>
[Профиль] [ЛС]

Larrytar

Пол: Мужской

Стаж: 12 дней

Сообщений: 240

Откуда: Greece

Создавать темы 06-Сен-2019 11:38 (спустя 31 секунда)

[Цитировать]

buy lasix lasix generic <a href=http://lolasix.info/#>purchase furosemide</a>
[Профиль] [ЛС]

Larrytar

Пол: Мужской

Стаж: 12 дней

Сообщений: 240

Откуда: Greece

Создавать темы 06-Сен-2019 11:38 (спустя 31 секунда)

[Цитировать]

lasix cheap generic lasix <a href=http://lolasix.info/#>buy lasix</a>
[Профиль] [ЛС]
Показать сообщения:    
Ответить на тему

Текущее время: 15-Сен 11:36

Часовой пояс: UTC + 3



Вы не можете начинать темы
Вы не можете отвечать на сообщения
Вы не можете редактировать свои сообщения
Вы не можете удалять свои сообщения
Вы не можете голосовать в опросах
Вы не можете прикреплять файлы к сообщениям
Вы не можете скачивать файлы