Невеста века / Hundred Year Bride [16/16] [2014, фэнтези, романтика, драма, HDTVRip] [RAW] [720p] DVO (Sound-Group)

Ответить на тему
 
Автор Сообщение

Sandairina ®

Пол: Женский

Стаж: 4 года 6 месяцев

Сообщений: 68

Создавать темы 22-Фев-2015 16:31

[Цитировать]

Невеста века / Hundred Year Bride
Страна: Южная Корея
Год выпуска: 2014
Жанр: фэнтези, романтика, драма
Продолжительность: 16 / 16
Режиссер: Юн Сан Хо
В ролях: Ли Хон Ки - Чхве Кан Чжу
Ян Чжин Сон - На Ду Рим / Чан И Кён
Чан А Ён - Ли Ру Ми
Пак Чжин Чжу - О Чжин Чжу (подруга Ду Рим)
Сон Хёк - Чан И Хён (брат И Кён)
Шин Ын Чон - Ма Чже Ран (мать И Кён)
Choi Il-Hwa - Чхве Иль До (отец Кан Чжу)
Ким Со Ра - Ким Мён Хи (мать Кан Чжу)
Чон Хэ Ин - Чхве Кан Ин (брат Кан Чжу, певец)
Ким А Ён - Сон Чжу Шин (призрак)
Кан Пиль Сон - секретарь Ким
Нам Чон Хи - Пак Сун Бок (бабушка Ду Рим)
Лим Пён Ки - дворецкий Чан
Квон Ын А - жена дворецкого
Ким Ю Чжон - Лиан
автор перевода: Sound-Group
Перевод: Двухголосая озвучка
Описание: Тэян - очень успешная компания. У обладателей этой "золотой жилки" только один минус: на семью наложено 100-летнее проклятье, начавшееся со смерти первой невесты наследника. Говорят, во всем виноват призрак, оберегающий их дом. Благодаря своему сходству с суженой Кан Чжу, Ду Рим начинает играть в "невесту" наследника Тэян. Но ведь проклятье - не игра. Бедной девушке остается только умереть? Или можно снять проклятье?
Доп.информация: перевод на русский ФГР Альянс
Перевод - AngelMa & Lady Flame
QC - Somoon
Сэмпл: http://yadi.sk/d/NETPIwlmJqSsa

Отличия

нет

Медиа Инфо

Format : AVI
Format/Info : Audio Video Interleave
File size : 1.29 GiB
Duration : 1h 8mn
Overall bit rate : 2 718 Kbps
Writing application : VirtualDubMod 1.5.10.2 (build 2540/release)
Writing library : VirtualDubMod build 2540/release
Video
ID : 0
Format : AVC
Format/Info : Advanced Video Codec
Format profile : High@L3.0
Format settings, CABAC : Yes
Format settings, ReFrames : 2 frames
Format settings, GOP : M=1, N=30
Codec ID : H264
Duration : 1h 8mn
Bit rate : 2 514 Kbps
Width : 1 280 pixels
Height : 720 pixels
Display aspect ratio : 16:9
Frame rate : 29.970 fps
Color space : YUV
Chroma subsampling : 4:2:0
Bit depth : 8 bits
Scan type : Progressive
Bits/(Pixel*Frame) : 0.091
Stream size : 1.20 GiB (93%)
Audio
ID : 1
Format : MPEG Audio
Format version : Version 1
Format profile : Layer 3
Mode : Joint stereo
Codec ID : 55
Codec ID/Hint : MP3
Duration : 1h 8mn
Bit rate mode : Constant
Bit rate : 192 Kbps
Channel(s) : 2 channels
Sampling rate : 48.0 KHz
Compression mode : Lossy
Stream size : 93.6 MiB (7%)
Alignment : Aligned on interleaves
Interleave, duration : 33 ms (1.00 video frame)
Interleave, preload duration : 504 ms

Скриншоты

Неотключаемые субтитры: Без хардсаба
Русские субтитры: Нет
Оригинальная аудиодорожка: Нет
Качество видео: HDTVRip
Разрешение: 720p
Формат: AVI
Видео: 1280x720, 29.970 кадров/сек, H.264, 2514 Кбит/сек
Аудио: 48,0 КГц, MP3, 2 канала, 192 Кбит/сек Язык Русский (в составе контейнера)
Озвучка: ДимРыб, Sandairina @SOUND-GROUP
[Профиль] [ЛС]
Показать сообщения:    
Ответить на тему

Текущее время: 15-Сен 11:07

Часовой пояс: UTC + 3



Вы не можете начинать темы
Вы не можете отвечать на сообщения
Вы не можете редактировать свои сообщения
Вы не можете удалять свои сообщения
Вы не можете голосовать в опросах
Вы не можете прикреплять файлы к сообщениям
Вы не можете скачивать файлы