Ночной дозор / The Night Watchman’s Journal / The Night Watchman [10 из 24] [2014, экшн, мистика, романтика, HDTVRip] [RAW] [720p] DVO (Владислав Данилов & Kedra)

Ответить на тему
 
Автор Сообщение

Kedra ®

Пол: Не указан

Стаж: 4 года 6 месяцев

Сообщений: 4

Создавать темы 01-Мар-2015 13:09

[Цитировать]

Ночной дозор / Ночные стражи / The Night Watchman’s Journal / The Night Watchman
-Страна: Южная Корея
Год выпуска: 2014
Жанр: экшн, мистика, романтика
Продолжительность: 20 серий по 59 минут-Режиссер: Ли Чжу Хван
В ролях:
Чон Иль У - Ли Рин
Ко Сон Хи - То Ха
Чон Юн Хо - Му Сок
Ё Чжи Со - Пак Су Рён
Юн Тхэ Ён - Чо Сан Хон
-Озвучка: Двухголосая озвучка Владислав Данилов & Kedra
ПереводMusic Cat
РедактураKasandra-Описание: Принц Ли Рин в детстве подвергся нападению призраков, после чего обрел способность их видеть. Годы спустя он присоединяется к ночной страже, которая защищает людей от враждебных духов.-Сэмпл: http://webfile.ru/file/e3d460a402c6849ec8c6307ae3558ea8-Неотключаемые субтитры: Без хардсаба
Русские субтитры: Нет
Оригинальная аудиодорожка: Нет
Качество видео: HDTVRip
Разрешение: 720p
Формат: AVI-Видео: 1280x720, 29.970 кадров/сек, H.264, 3000 Кбит/сек
Аудио: RUS (язык дорожки — русский), 48,0 КГц, MP3, 2 канала, 192 Кбит/сек

Скриншоты

MediaInfo

Формат : AVI
Формат/Информация : Audio Video Interleave
Размер файла : 1,33 Гбайт
Продолжительность : 59 м.
Общий поток : 3234 Кбит/сек
Программа кодирования : VirtualDubMod 1.5.10.2 (build 2540/release)
Библиотека кодирования : VirtualDubMod build 2540/release
Видео
Идентификатор : 0
Формат : AVC
Формат/Информация : Advanced Video Codec
Профиль формата : High@L5.1
Параметр CABAC формата : Да
Параметр ReFrames формата : 4 кадра
Идентификатор кодека : H264
Продолжительность : 59 м.
Битрейт : 3000 Кбит/сек
Ширина : 1280 пикселей
Высота : 720 пикселей
Соотношение сторон : 16:9
Режим частоты кадров : Переменный
Частота кадров : 29,970 кадров/сек
Цветовое пространство : YUV
Субдискретизация насыщенности : 4:2:0
Битовая глубина : 8 бит
Тип развёртки : Прогрессивная
Бит/(Пиксели*Кадры) : 0.109
Размер потока : 1,25 Гбайт (94%)
Библиотека кодирования : x264 core 112
Настройки программы : cabac=1 / ref=3 / deblock=1:-1:-1 / analyse=0x3:0x113 / me=hex / subme=6 / psy=1 / psy_rd=1.00:1.00 / mixed_ref=1 / me_range=16 / chroma_me=1 / trellis=1 / 8x8dct=1 / cqm=0 / deadzone=21,11 / fast_pskip=0 / chroma_qp_offset=-4 / threads=12 / sliced_threads=0 / nr=0 / decimate=1 / interlaced=0 / constrained_intra=0 / bframes=3 / b_pyramid=2 / b_adapt=1 / b_bias=1 / direct=3 / weightb=1 / open_gop=0 / weightp=2 / keyint=299 / keyint_min=25 / scenecut=1 / intra_refresh=0 / rc_lookahead=40 / rc=abr / mbtree=1 / bitrate=3000 / ratetol=1.0 / qcomp=0.60 / qpmin=10 / qpmax=51 / qpstep=4 / ip_ratio=1.40 / aq=1:1.00
Аудио
Идентификатор : 1
Формат : MPEG Audio
Версия формата : Version 1
Профиль формата : Layer 3
Режим : Joint stereo
Идентификатор кодека : 55
Идентификатор кодека/Подсказка : MP3
Продолжительность : 59 м.
Вид битрейта : Постоянный
Битрейт : 192 Кбит/сек
Каналы : 2 канала
Частота : 48,0 КГц
Метод сжатия : С потерями
Размер потока : 81,1 Мбайт (6%)
Выравнивание : Разделение по промежуткам
Продолжительность промежутка : 33 мс. (1,00 видеокадр)
Время предзагрузки промежутка : 500 мс.
Библиотека кодирования : LAME3.98.2
[Профиль] [ЛС]

kraffty

Пол: Мужской

Стаж: 4 года 6 месяцев

Сообщений: 3

Откуда: от верблюда

Создавать темы 01-Мар-2015 13:46 (спустя 36 минут)

[Цитировать]

Ночные стражи / The Night Watchman’s Journal / The Night Watchman
почему название поста такое, а на постере другое? исправляйте
[Профиль] [ЛС]

Sandairina

Пол: Женский

Стаж: 4 года 6 месяцев

Сообщений: 68

Создавать темы 01-Мар-2015 13:48 (спустя 2 минуты)

[Цитировать]

Ну всё! ещё один админ на сайте появился! ag
[Профиль] [ЛС]
Показать сообщения:    
Ответить на тему

Текущее время: 15-Сен 10:41

Часовой пояс: UTC + 3



Вы не можете начинать темы
Вы не можете отвечать на сообщения
Вы не можете редактировать свои сообщения
Вы не можете удалять свои сообщения
Вы не можете голосовать в опросах
Вы не можете прикреплять файлы к сообщениям
Вы не можете скачивать файлы