Спираль времени / Taimu Supairaru / Time Spiral [04 из 08] [2014, мистика, научная фантастика, HDTVRip] [720p] DVO (SOUND-GROUP)

Ответить на тему
 
Автор Сообщение

Kedra ®

Пол: Не указан

Стаж: 4 года 5 месяцев

Сообщений: 4

Создавать темы 01-Мар-2015 20:26

[Цитировать]

Спираль времени / Time Spiral
-Страна: Япония
Год выпуска: 2014
Жанр: мистика, научная фантастика
Продолжительность: 8 серий по 30 мин-Режиссер: Нишимура Рё
В ролях:
Kuroki Meisa - Aizawa Natsuki
Camui Gackt - Tatsumi Shuuya
Hiraoka Yuuta - Yuuki Kentarou-Перевод: Двухголосая озвучка
Озвучка: Kedra & Михаил Алексеев-Описание: Время – это необратимое течение, движущееся лишь в одном направлении: из прошлого в будущее. Но что, если всё же ход времени изменится? Ведь связь между прошлым и будущим незыблема.-Сэмпл: http://files.webfile.ru/file/2c71252dae11a3315dcba6ab02ccca97-Неотключаемые субтитры: Полухардсаб (только надписи)
Русские субтитры: Нет
Оригинальная аудиодорожка: Нет
Качество видео: HDTVRip
Разрешение: 720p
Формат: AVI-Видео: H264, 1280х720, 3000 Кбит/сек, 29,970 кадров/сек
Аудио: MP3, 192 Кбит/сек, 48 КГц, 2 канала Язык Русский

MediaInfo

Формат : AVI
Формат/Информация : Audio Video Interleave
Размер файла : 666 Мбайт
Продолжительность : 29 м.
Общий поток : 3213 Кбит/сек
Программа кодирования : VirtualDubMod 1.5.10.2 (build 2540/release)
Библиотека кодирования : VirtualDubMod build 2540/release
Видео
Идентификатор : 0
Формат : AVC
Формат/Информация : Advanced Video Codec
Профиль формата : High@L3.1
Параметр CABAC формата : Да
Параметр ReFrames формата : 4 кадра
Идентификатор кодека : H264
Продолжительность : 29 м.
Битрейт : 3000 Кбит/сек
Ширина : 1280 пикселей
Высота : 720 пикселей
Соотношение сторон : 16:9
Режим частоты кадров : Переменный
Частота кадров : 29,970 кадров/сек
Цветовое пространство : YUV
Субдискретизация насыщенности : 4:2:0
Битовая глубина : 8 бит
Тип развёртки : Прогрессивная
Бит/(Пиксели*Кадры) : 0.109
Размер потока : 624 Мбайт (94%)
Библиотека кодирования : x264 core 142 r2479 dd79a61
Настройки программы : cabac=1 / ref=1 / deblock=1:0:0 / analyse=0x3:0x113 / me=hex / subme=2 / psy=1 / psy_rd=1.00:0.00 / mixed_ref=0 / me_range=16 / chroma_me=1 / trellis=0 / 8x8dct=1 / cqm=0 / deadzone=21,11 / fast_pskip=1 / chroma_qp_offset=0 / threads=3 / lookahead_threads=1 / sliced_threads=0 / nr=0 / decimate=1 / interlaced=0 / bluray_compat=0 / constrained_intra=0 / bframes=3 / b_pyramid=2 / b_adapt=1 / b_bias=0 / direct=1 / weightb=1 / open_gop=0 / weightp=1 / keyint=250 / keyint_min=25 / scenecut=40 / intra_refresh=0 / rc_lookahead=10 / rc=abr / mbtree=1 / bitrate=3000 / ratetol=1.0 / qcomp=0.60 / qpmin=0 / qpmax=69 / qpstep=4 / ip_ratio=1.40 / aq=1:1.00
Аудио
Идентификатор : 1
Формат : MPEG Audio
Версия формата : Version 1
Профиль формата : Layer 3
Режим : Joint stereo
Идентификатор кодека : 55
Идентификатор кодека/Подсказка : MP3
Продолжительность : 29 м.
Вид битрейта : Постоянный
Битрейт : 192 Кбит/сек
Каналы : 2 канала
Частота : 48,0 КГц
Метод сжатия : С потерями
Размер потока : 39,8 Мбайт (6%)
Выравнивание : Соединение по промежуткам
Продолжительность промежутка : 33 мс. (1,00 видеокадр)
Время предзагрузки промежутка : 504 мс.

Скриншоты

[Профиль] [ЛС]
Показать сообщения:    
Ответить на тему

Текущее время: 25-Авг 08:16

Часовой пояс: UTC + 3



Вы не можете начинать темы
Вы не можете отвечать на сообщения
Вы не можете редактировать свои сообщения
Вы не можете удалять свои сообщения
Вы не можете голосовать в опросах
Вы не можете прикреплять файлы к сообщениям
Вы не можете скачивать файлы