Ловушка любви / A Woman's Trickery [12/12] [2015, романтика, мелодрама, slap & kiss, HDTVRip][1080р] DVO (SOUND-GROUP)

Страницы :  1, 2, 3, 4, 5, 6, 7  След.

Ответить на тему
 
Автор Сообщение

Sandairina ®

Пол: Женский

Стаж: 4 года 6 месяцев

Сообщений: 68

Создавать темы 03-Апр-2015 11:03

[Цитировать]

Ловушка любви / A Woman's Trickery
Производство: Таиланд
Начало показа: 5 марта 2015 (среда-четверг)
Год: 2015
Продолжительность: 12 серий по 80 мин
Жанр: мелодрама, slap & kiss
Канал: OneHD
Компания: Exact - Scenario

Перевод:
Двухголосая озвучка, SOUND-GROUP
В ролях:
Шон / Sean Jindachot - Сэк
Эстер / Esther Supreeleela - Кейт
Дипси / Gypsy 'Keerati' Mahapreukpong - Па
Тжес / Jespipat Tilapornputt - Пу
Фан / Fang Pitchaya Srithep
Bifern Anchasa Mongkhonsamai - Pat
Лиф / Lift Supoj Janjareon
Описание:
Чтобы вернуть долг в 32 миллиона, отец Кейт использует ее в качестве платы. Теперь в ее обязанности входит забота о темпераментном и капризном главе компании, а еще Кейт должна родить ему наследника.
Кейт переезжает в дом своего кредитора, знакомится с семьей и постепенно начинает покорять их сердца, включая и самого парня. Но у нее есть жених, а у него - бывшая жена, которые не позволят им быть вместе. А тут еще появляется глава местной мафии, которому приглянулась Кейт.
Доп.информация:
Русские субтитры: ФСГ АЛЬЯНC
Ретайм: Sandairina
Перевод: Hatshepsut, Алена
Перевод c тайского: Chitracool
Бета-редакция: Хромоножка
Работа со звуком: Hagred
Озвучивание: Андрей Григорьев и Sandairina
Сэмпл: https://yadi.sk/mail/?hash=izjkLJxYp1QdMCFAnbwm5dM8...mp;uid=142586922
Неотключаемые субтитры: Полухардсаб (надписи для озвучки)
Субтитры: нет
Качество видео: HDTVRip
Формат: MP4
Видео: AVC1, 1920х1080, 25.000fps, 3170Kbps
Аудио: АС3, 48 KHz, 192 Kbps, stereo Язык Русский (в составе контейнера)

МедиаИнфо

Format : MPEG-4
Format profile : Base Media
Codec ID : isom
File size : 1.95 GiB
Duration : 1h 22mn
Overall bit rate : 3 364 Kbps
Encoded date : UTC 2015-04-02 23:02:41
Tagged date : UTC 2015-04-02 23:02:41
Video
ID : 1
Format : AVC
Format/Info : Advanced Video Codec
Format profile : High@L5.0
Format settings, CABAC : Yes
Format settings, ReFrames : 5 frames
Codec ID : avc1
Codec ID/Info : Advanced Video Coding
Duration : 1h 22mn
Bit rate : 3 170 Kbps
Maximum bit rate : 12.6 Mbps
Width : 1 920 pixels
Height : 1 080 pixels
Display aspect ratio : 16:9
Frame rate mode : Constant
Frame rate : 25.000 fps
Color space : YUV
Chroma subsampling : 4:2:0
Bit depth : 8 bits
Scan type : Progressive
Bits/(Pixel*Frame) : 0.061
Stream size : 1.83 GiB (94%)
Writing library : x264 core 130 r2273 b3065e6
Encoding settings : cabac=1 / ref=5 / deblock=1:-2:-1 / analyse=0x3:0x133 / me=hex / subme=4 / psy=1 / psy_rd=1.00:0.00 / mixed_ref=0 / me_range=16 / chroma_me=1 / trellis=1 / 8x8dct=1 / cqm=0 / deadzone=21,11 / fast_pskip=1 / chroma_qp_offset=0 / threads=12 / lookahead_threads=3 / sliced_threads=0 / nr=0 / decimate=1 / interlaced=0 / bluray_compat=0 / constrained_intra=0 / bframes=5 / b_pyramid=2 / b_adapt=1 / b_bias=0 / direct=3 / weightb=1 / open_gop=0 / weightp=2 / keyint=250 / keyint_min=25 / scenecut=40 / intra_refresh=0 / rc_lookahead=20 / rc=2pass / mbtree=1 / bitrate=3170 / ratetol=1.0 / qcomp=0.60 / qpmin=10 / qpmax=51 / qpstep=4 / cplxblur=20.0 / qblur=0.5 / vbv_maxrate=62500 / vbv_bufsize=78125 / nal_hrd=none / ip_ratio=1.40 / aq=1:1.00
Encoded date : UTC 2015-04-02 23:02:41
Tagged date : UTC 2015-04-02 23:04:54
Audio
ID : 2
Format : AC-3
Format/Info : Audio Coding 3
Mode extension : CM (complete main)
Format settings, Endianness : Big
Codec ID : ac-3
Duration : 1h 22mn
Bit rate mode : Constant
Bit rate : 192 Kbps
Channel(s) : 2 channels
Channel positions : Front: L R
Sampling rate : 48.0 KHz
Bit depth : 16 bits
Compression mode : Lossy
Delay relative to video : 80ms
Stream size : 114 MiB (6%)
Encoded date : UTC 2015-04-02 23:04:46
Tagged date : UTC 2015-04-02 23:04:54

Скриншоты

Пожалуйста, оставайтесь на раздаче как можно дольше!


Последний раз редактировалось: Sandairina (2016-05-13 20:47), всего редактировалось 12 раз(а)
[Профиль] [ЛС]

Sandairina ®

Пол: Женский

Стаж: 4 года 6 месяцев

Сообщений: 68

Создавать темы 25-Май-2015 20:09 (спустя 1 месяц 22 дня)

[Цитировать]

Добавлена 2ая серия.
[Профиль] [ЛС]

Sandairina ®

Пол: Женский

Стаж: 4 года 6 месяцев

Сообщений: 68

Создавать темы 23-Авг-2015 22:23 (спустя 2 месяца 29 дней)

[Цитировать]

Добавлена 3-я серия! Приятного просмотра!
[Профиль] [ЛС]

Sandairina ®

Пол: Женский

Стаж: 4 года 6 месяцев

Сообщений: 68

Создавать темы 07-Сен-2015 10:33 (спустя 14 дней)

[Цитировать]

Добавлена 4ая серия!
[Профиль] [ЛС]

Sandairina ®

Пол: Женский

Стаж: 4 года 6 месяцев

Сообщений: 68

Создавать темы 14-Ноя-2015 22:38 (спустя 2 месяца 7 дней)

[Цитировать]

Добавлена 5-ая серия!
[Профиль] [ЛС]

Sandairina ®

Пол: Женский

Стаж: 4 года 6 месяцев

Сообщений: 68

Создавать темы 30-Ноя-2015 10:50 (спустя 15 дней)

[Цитировать]

Добавлена 6-ая серия!
[Профиль] [ЛС]

Sandairina ®

Пол: Женский

Стаж: 4 года 6 месяцев

Сообщений: 68

Создавать темы 15-Дек-2015 18:28 (спустя 15 дней)

[Цитировать]

Добавлена 7-ая серия!
[Профиль] [ЛС]

Sandairina ®

Пол: Женский

Стаж: 4 года 6 месяцев

Сообщений: 68

Создавать темы 15-Янв-2016 20:14 (спустя 1 месяц)

[Цитировать]

Добавлена 8-ая серия!
[Профиль] [ЛС]

Sandairina ®

Пол: Женский

Стаж: 4 года 6 месяцев

Сообщений: 68

Создавать темы 12-Мар-2016 22:00 (спустя 1 месяц 28 дней)

[Цитировать]

Добавлена 9-ая серия!
[Профиль] [ЛС]

Sandairina ®

Пол: Женский

Стаж: 4 года 6 месяцев

Сообщений: 68

Создавать темы 20-Мар-2016 14:40 (спустя 7 дней)

[Цитировать]

Добавлена 10-ая серия!
[Профиль] [ЛС]

Sandairina ®

Пол: Женский

Стаж: 4 года 6 месяцев

Сообщений: 68

Создавать темы 11-Апр-2016 10:59 (спустя 21 день)

[Цитировать]

Добавлена 11-ая серия!
[Профиль] [ЛС]

Sandairina ®

Пол: Женский

Стаж: 4 года 6 месяцев

Сообщений: 68

Создавать темы 13-Май-2016 20:49 (спустя 1 месяц 2 дня)

[Цитировать]

Добавлена заключительная серия! Приятного просмотра!
[Профиль] [ЛС]

weira

Пол: Не указан

Стаж: 2 года 9 месяцев

Сообщений: 1

Создавать темы 07-Дек-2016 10:44 (спустя 6 месяцев 24 дня)

[Цитировать]

Скажите пожалуйста, есть ли возможность выложить этот лакорн в меньшем объеме?
[Профиль] [ЛС]

Sandairina ®

Пол: Женский

Стаж: 4 года 6 месяцев

Сообщений: 68

Создавать темы 07-Дек-2016 12:04 (спустя 1 час 20 минут)

[Цитировать]

214Скажите пожалуйста, есть ли возможность выложить этот лакорн в меньшем объеме?
В меньшем объёме мы выкладывать не будем. Как вариант, скачайте вконтакте, там можно выбирать какого качества видео скачивать.
[Профиль] [ЛС]

MarvinHeins

Пол: Не указан

Стаж: 13 дней

Сообщений: 12

Создавать темы 01-Сен-2019 18:19 (спустя 2 года 8 месяцев)

[Цитировать]

It was no cheaper booking on line Coupon Code Repress unlit their thousands of products in a to one side multiplicity of departments including home goods, bed and bath, women, men, juniors and guys, kids, pamper, shoes, handbags, accessories, jewelry and watches, toys, and get them exchange for less with cheap bonus cards from GiftCards
26439 65861 34987 64822 44816 50855 65352 29997 47083 53125 28809 66894 43011 66905 55252 66054 43888 39575 60121 37749 31638 53889 46862 39517 34398 27792 58603 36563 52634 64351 30229 52528 49032 38109 29992 48954 42988 34444 32741 25743 57195 25418 52222 43516 54941 50017 41314 52696 25490 62321
Calculate roof area from pitch
Best place to buy ceiling fans
Install ceiling fan extra red wire ceiling
Installation instructions for hunter ceiling fans
Paint ceiling blue to detour bugs
Paint cracking between wall and ceiling painted
Small bathroom ideas on budget
French country bathroom color schemes
Bathroom cabinet sizes diy blog
Ceilings plus logo
Install ceiling fan extra red wire ceiling
Ideas for modern bathrooms
L shaped kitchen design india
Fashion photography lighting techniques white umbrellas
Paint floorboards
[Профиль] [ЛС]
Показать сообщения:    
Ответить на тему

Текущее время: 15-Сен 10:57

Часовой пояс: UTC + 3



Вы не можете начинать темы
Вы не можете отвечать на сообщения
Вы не можете редактировать свои сообщения
Вы не можете удалять свои сообщения
Вы не можете голосовать в опросах
Вы не можете прикреплять файлы к сообщениям
Вы не можете скачивать файлы