Баскетбол / Basketball [05/18] [2013, романтика, спорт, исторический, TVRip] [RAW] [450p] DVO (Sound-Group)

Ответить на тему
 
Автор Сообщение

Sandairina ®

Пол: Женский

Стаж: 4 года 6 месяцев

Сообщений: 68

Создавать темы 15-Апр-2015 16:09

[Цитировать]

Баскетбол / Basketball
Страна: Южная Корея
Год выпуска: 2013
Жанр: романтика, спорт, исторический
Продолжительность: 18 серий по 60 мин
Режиссер: Kwak Jung Hwan
В ролях: До Чжи Хан, Park Soon Chun, Son Bum Joon, Jin Kyung, Kim Bo Mi, Lee Elijah, Kim Eung Soo, Park Ye Eun, Jung Dong Hyun,Ан Сок Хван, Kang Sung Min, Jung In Sun, Gong Hyung Jin, Ji Il Joo, Jung Seung Kyo, Han Yong Soo, Park Gun, Choi Chang Gyun
Перевод: Двухголосая озвучка
Автор перевода: Sound-Group
Описание: В 1948 году корейская баскетбольная команда в первый и последний раз играла единой нацией.
История молодого человека по имени Кан Сан будет разворачиваться на фоне японской оккупации, борьбы за независимость Кореи, а так же последующего разделения Севера и Юга. Он выходец из бедной деревеньки, который всей душой мечтает попасть в национальную баскетбольную команду, чтобы в один прекрасный день принять участие в Олимпиаде. Казалось бы его мечта недостижима, но по-настоящему недостижимой станет его любовь, ведь избранница – роскошная журналистка Чхве Шин Ён.
Доп.информация: Русские субтитры ФСГ Big Boss
Сэмпл: http://yadi.sk/d/vLfKgfWVJqnJd

MediaInfo

Format : AVI
Format/Info : Audio Video Interleave
File size : 712 MiB
Duration : 1h 6mn
Overall bit rate : 1 504 Kbps
Writing application : VirtualDubMod 1.5.10.2 (build 2540/release)
Writing library : VirtualDubMod build 2540/release
Video
ID : 0
Format : MPEG-4 Visual
Format profile : Simple@L3
Format settings, BVOP : No
Format settings, QPel : No
Format settings, GMC : No warppoints
Format settings, Matrix : Default (H.263)
Codec ID : XVID
Codec ID/Hint : XviD
Duration : 1h 6mn
Bit rate : 1 301 Kbps
Width : 800 pixels
Height : 450 pixels
Display aspect ratio : 16:9
Frame rate : 30.000 fps
Color space : YUV
Chroma subsampling : 4:2:0
Bit depth : 8 bits
Scan type : Progressive
Compression mode : Lossy
Bits/(Pixel*Frame) : 0.120
Stream size : 615 MiB (86%)
Writing library : XviD 63
Audio
ID : 1
Format : MPEG Audio
Format version : Version 1
Format profile : Layer 3
Mode : Joint stereo
Codec ID : 55
Codec ID/Hint : MP3
Duration : 1h 6mn
Bit rate mode : Constant
Bit rate : 192 Kbps
Channel(s) : 2 channels
Sampling rate : 48.0 KHz
Compression mode : Lossy
Stream size : 90.8 MiB (13%)
Alignment : Aligned on interleaves
Interleave, duration : 33 ms (1.00 video frame)
Interleave, preload duration : 504 ms
Неотключаемые субтитры: без хардсаба
Русские субтитры: Нет
Оригинальная аудиодорожка: Нет
Качество видео: TVRip
Разрешение: 450p
Формат: AVI
Видео: 800x450, 30 кадров/сек, XVID, 1 301 Кбит/сек
Озвучка :: двухголосая, Yus_Elder и Sandairina(Sound-Group)
Аудио 1: MP3 48000Hz stereo 192kbps Язык Русский (в составе контейнера)

Скриншоты


Раздача 720р ЗДЕСЬ
[Профиль] [ЛС]
Показать сообщения:    
Ответить на тему

Текущее время: 15-Сен 10:49

Часовой пояс: UTC + 3



Вы не можете начинать темы
Вы не можете отвечать на сообщения
Вы не можете редактировать свои сообщения
Вы не можете удалять свои сообщения
Вы не можете голосовать в опросах
Вы не можете прикреплять файлы к сообщениям
Вы не можете скачивать файлы