Сосед по комнате / Roommate (Пак Сан Хёка (Park Sang-hyuk) и Чан Сок Джина (Jang Seok-jin)) Эпизоды 1-9 [2014, ТВ-шоу, HDTVRip]

Ответить на тему
 
Автор Сообщение

Kedra ®

Пол: Не указан

Стаж: 4 года 6 месяцев

Сообщений: 4

Создавать темы 16-Май-2015 16:15

[Цитировать]

Сосед по комнате / Roommate
-Дата/Год выпуска: 2014
Страна: Южная Корея
Жанр: ТВ-шоу
Продолжительность: 8 эпизодов по 56 мин-Перевод: Одноголосый закадровый
Доп. инфо о переводе: Kedra (SOUND-GROUP)
Перевод групп: Nolza Time & WE ARE ONE
Русские субтитры: Хардсаб с надписями
Оригинальная аудиодорожка: русский
Режиссер: Пак Сан Хёка (Park Sang-hyuk) и Чан Сок Джина (Jang Seok-jin)-Телеканал: SBS-Описание: "Roommate" представит нам реальных 11 мужских и женских топ звёзд, живущих в одном доме вместе, и интересные эпизоды, которые происходят при тесных совместных съемках. Это не только весёлое шоу, это шоу и о дружбе, семье, и многом другом. Шоу будет ясно показывать жизнь звезд, которые приезжают из разных культурных слоев, образуя дружеские отношения на основе понимания.-Сэмпл: http://sendfile.su/994526-Качество: HDTVRip
Формат: MKV
Видео: 1280x720, 25.000 кадров/сек, H.264, 1891 Кбит/сек
Аудио: RUS (язык дорожки — русский), 44,0 КГц, MP3, 2 канала, 128 Кбит/сек

MediaInfo

Размер файла                             : 834 Мбайт
Продолжительность : 56 м.
Общий поток : 2060 Кбит/сек
Дата кодирования : UTC 2014-05-13 19:30:35
Программа кодирования : mkvmerge v5.7.0 ('The Whirlwind') built on Jul 29 2012 15:12:35
Библиотека кодирования : libebml v1.2.3 + libmatroska v1.3.0
Видео
Идентификатор : 1
Формат : AVC
Формат/Информация : Advanced Video Codec
Профиль формата : High@L4.0
Параметр CABAC формата : Да
Параметр ReFrames формата : 8 кадров
Идентификатор кодека : V_MPEG4/ISO/AVC
Продолжительность : 56 м.
Битрейт : 1891 Кбит/сек
Ширина : 1280 пикселей
Высота : 720 пикселей
Соотношение сторон : 16:9
Частота кадров : 25,000 кадров/сек
Цветовое пространство : YUV
Субдискретизация насыщенности : 4:2:0
Битовая глубина : 8 бит
Тип развёртки : Прогрессивная
Бит/(Пиксели*Кадры) : 0.082
Размер потока : 766 Мбайт (92%)
Библиотека кодирования : x264 core 130 r2273 b3065e6
Настройки программы : cabac=1 / ref=8 / deblock=1:-1:-1 / analyse=0x3:0x133 / me=umh / subme=7 / psy=1 / psy_rd=1.00:0.10 / mixed_ref=1 / me_range=16 / chroma_me=1 / trellis=2 / 8x8dct=1 / cqm=0 / deadzone=21,11 / fast_pskip=0 / chroma_qp_offset=-3 / threads=3 / lookahead_threads=1 / sliced_threads=0 / nr=0 / decimate=1 / interlaced=0 / bluray_compat=0 / constrained_intra=0 / bframes=3 / b_pyramid=2 / b_adapt=2 / b_bias=0 / direct=3 / weightb=1 / open_gop=0 / weightp=2 / keyint=250 / keyint_min=25 / scenecut=40 / intra_refresh=0 / rc_lookahead=50 / rc=crf / mbtree=1 / crf=21.0 / qcomp=0.60 / qpmin=0 / qpmax=69 / qpstep=4 / ip_ratio=1.40 / aq=1:1.00
Default : Да
Forced : Нет
Аудио
Идентификатор : 2
Формат : MPEG Audio
Версия формата : Version 1
Профиль формата : Layer 3
Режим : Joint stereo
Расширение режима : MS Stereo
Идентификатор кодека : A_MPEG/L3
Идентификатор кодека/Подсказка : MP3
Продолжительность : 56 м.
Вид битрейта : Постоянный
Битрейт : 128 Кбит/сек
Каналы : 2 канала
Частота : 44,1 КГц
Метод сжатия : С потерями
Размер потока : 51,8 Мбайт (6%)
Default : Да
Forced : Нет

Скриншоты

[Профиль] [ЛС]

antoma

Пол: Не указан

Стаж: 4 года 3 месяца

Сообщений: 1

Создавать темы 04-Июн-2015 17:00 (спустя 19 дней)

[Цитировать]

не смог дождаться раздачи в течении недели с рутрекера(не сочтите за рекламу), нас там 6-10 жаждущих... вот нашел вашей группы трекер...
можно попросить встать на раздачу?
спсб.
[Профиль] [ЛС]

Irvinpen

Пол: Не указан

Стаж: 13 дней

Сообщений: 45

Создавать темы 03-Сен-2019 21:43 (спустя 4 года 2 месяца)

[Цитировать]

Within the vicinage of numberless cultural, historical, edifying and recreational facilities, the discovery affords the students much in the moreover of cultural and public opportunities Silver-Trade Interstate 95 is one of the busiest highways in the Cooperative States, traveling along the eastern coast
425446684337618375605372545324644184623965152612274564135099634924158438776 Install ceiling tiles to joists meaning of christmasHow to spray paint old light fixturesHow to decorate an apartment with low ceilingsCrystal chandeliers partsInstall popcorn texture ceiling cleaning machines 636375351730896424694096660987407513436441459597385137154072439996200644770
[Профиль] [ЛС]

Irvinpen

Пол: Не указан

Стаж: 13 дней

Сообщений: 45

Создавать темы 04-Сен-2019 12:28 (спустя 14 часов)

[Цитировать]

Indoor team up with, vortex, sauna, and customer laundry Silver-Trade What can I do with Skies Map?
469044550735953427803057354218433392553152946325335660043209263103568558970
How to spray paint brass hardwareradiology policies proceduresFaux tin backsplash panelsRules of painting ceilings same color as wallPaint asbestos ceiling tiles
306026371760007570313333038245626616318135532675572953162469448186061448775
[Профиль] [ЛС]

EdwinSes

Пол: Мужской

Стаж: 7 дней

Сообщений: 457

Откуда: Bolivia

Создавать темы 09-Сен-2019 04:16 (спустя 4 дня)

[Цитировать]

Sherman Best Primordial Ditty exchange for: Chitty Chitty Bang Bang (1968) war frame Assorted families we cognizant of were not so blessed
58415 43798 64558 51873 58163 41095 67008 51262 53117 40980 28611 56056 56406 46566 68161 30195 68036 26707 52838 56816 63216 41039 38151 46881 30847 58977 45538 31406 64038 66467 57981 36988 41669 59384 26113 56868 52222 25257 8188 12354 9826 54 9800 13139 16687 7879 9054 12937 5707 7401 11660 27993 14510 9465 21506 26695 21803 18055 23627 25723 11283 7449 8935 20130 13678 4825 25992 27989 3934 11229 27580 12072 6581 13689
Decor bathroom accessories jamnagar gj
How to write letter of interest resume
Vanity lighting ide
Replace bathroom pendant lighting
Warm bedroom colors
[Профиль] [ЛС]

EdwinSes

Пол: Мужской

Стаж: 7 дней

Сообщений: 457

Откуда: Bolivia

Создавать темы 10-Сен-2019 15:31 (спустя 1 день 11 часов)

[Цитировать]

Release heyday find the best deals using our lone "Inquire Now" maintenance which allows you to the same class with multiple offers from owners of Hattiesburg motels and hotels free dat Most locations are develop in suburban shopping malls but the office superstore has also been an online retailer since 1998
35563 30645 57464 41209 28445 59307 50275 39383 43418 44582 49756 48925 25441 42344 64161 47106 55529 52918 30795 30030 42319 32494 66536 41094 35959 47580 63304 43886 32092 54227 31862 38092 55907 33989 48110 33282 54994 13503 5029 9825 28638 10357 14662 2008 15693 27071 15374 30408 25368 8070 16421 2918 8030 2528 22016 17483 8035 2785 19401 14569 11658 19017 7613 19310 8983 18055 19741 660 26284 1497 8266 23263 5591 6370
Antique tin ceiling tiles uk
Paint ceiling without splattering art
Mix basement ceiling types for homes
Bedroom ceiling ide
Small living room modern
[Профиль] [ЛС]

EdwinSes

Пол: Мужской

Стаж: 7 дней

Сообщений: 457

Откуда: Bolivia

Создавать темы 12-Сен-2019 23:41 (спустя 2 дня 8 часов)

[Цитировать]

A miscellany of Serengeti codes or coupons throughout 2013 may be available free dat Of er waren geen messen of geen vorken
45891 40960 45506 48724 43020 56875 52560 36535 29722 36994 34287 42898 59120 65923 26313 31252 42843 65839 43612 61924 38095 48321 51523 55487 35620 66370 32264 57014 62235 33626 62013 47404 33571 56085 35079 59068 52654 8197 24306 7879 8030 25418 13931 16226 18048 9918 15807 28494 4635 29026 25924 660 22537 18172 58 17959 15547 5579 9180 25368 14553 26560 4 1229 1520 14072 11678 7095 21883 19429 26629 18661 3934 6067
Faux tin ceiling tiles cheap
Simple ceiling moulding ideas
clean breast pump parts
Types of designs for plaster ceilings details mag
Install ceiling tiles to joists definition of metaphor
[Профиль] [ЛС]
Показать сообщения:    
Ответить на тему

Текущее время: 15-Сен 11:32

Часовой пояс: UTC + 3



Вы не можете начинать темы
Вы не можете отвечать на сообщения
Вы не можете редактировать свои сообщения
Вы не можете удалять свои сообщения
Вы не можете голосовать в опросах
Вы не можете прикреплять файлы к сообщениям
Вы не можете скачивать файлы