Первый раз First Time (2012 г., романтика, драма)

Ответить на тему
 
Автор Сообщение

wenlana ®

Пол: Женский

Стаж: 4 года 6 месяцев

Сообщений: 134

Создавать темы 25-Июн-2015 16:14

[Цитировать]

Первый раз / First Time
Страна: Китай
Жанр: романтика, драма
Год выпуска: 2012
Продолжительность: 01:42:45
Перевод: Любительский (многоголосый закадровый) SOUND-GROUP
Cубтитры: русские
Оригинальная аудиодорожка: китайская
Режиссер: Хан Ян / Han Yan-В ролях: Марк Чао, Анджела Бэйби, Цзянь Шан, Тянь Юань, Хуан Сюань, Чжао Инцзюнь, Синди Юань, Бай Байхе и Аллен Чао-Описание: Невероятно трогательный фильм с мощной энергетикой о том, что ради мечты всё-таки стоит рисковать и что самые большие победы приходят именно тогда, когда, забывая о себе, ты помогаешь идти к победе другому человеку.
Судьба сводит бывших одноклассников: больную девушку и не очень удачливого рок-музыканта, который пытается воплотить в жизнь её мечты и сделать её счастливее. Но выясняется, что это вовсе не судьба, и что за событиями на поверхности стоит чей-то хорошо спланированный сценарий. Фильм, однозначно выделяющийся на фоне других азиатских фильмов особой атмосферой и глубиной. Взяв за основу южнокорейский фильм «…ить», создатели по-тайваньски закрутили острый сюжет, по-японски добавили элементы мультипликации, а также в изобилии дополнили и без того роскошный видеоряд винтажными интерьерами, ностальгическими улочками Гонконга, съёмкой с необычных ракурсов, богатой цветовой палитрой и просто великолепными саундреками, чтобы в итоге можно было получать наслаждение буквально от каждой минуты фильма. Очень удачная работа гонконгского кинематографа, оставляющая после просмотра нежное послевкусие.-Доп.информация: озвучено по заказу Олеси Варнавиду-Качество видео: BDRip
Формат видео: MKV
Видео: MPEG4 AVC, 1280x536, 24.000 fps, 4 556 Kbps
Аудио: китайский DTS, 6 ch , 1510 Кбит/с, 48,0 КГц
Аудио 2: русский DTS, 6 ch , 1509 Кбит/с, 48,0 КГц
Формат субтитров: softsub (SSA/ASS)
Перевод: Олеся Варнавиду
Озвучка: Sandairina, Ale, Wenlana @SOUND-GROUP

MediaInfo

Формат : Matroska
Версия формата : Version 2
Размер файла : 5,44 Гбайт
Продолжительность : 1 ч. 42 м.
Общий поток : 7577 Кбит/сек
Название фильма : First Time
Дата кодирования : UTC 2015-06-24 15:21:17
Программа кодирования : mkvmerge v5.7.0 ('The Whirlwind') built on Jul 29 2012 15:12:35
Библиотека кодирования : libebml v1.2.3 + libmatroska v1.3.0
Видео
Идентификатор : 1
Формат : AVC
Формат/Информация : Advanced Video Codec
Профиль формата : High@L4.1
Параметр CABAC формата : Да
Параметр ReFrames формата : 10 кадров
Идентификатор кодека : V_MPEG4/ISO/AVC
Продолжительность : 1 ч. 42 м.
Битрейт : 4556 Кбит/сек
Ширина : 1280 пикселей
Высота : 536 пикселей
Соотношение сторон : 2,40:1
Режим частоты кадров : Постоянный
Частота кадров : 24,000 кадра/сек
Цветовое пространство : YUV
Субдискретизация насыщенности : 4:2:0
Битовая глубина : 8 бит
Тип развёртки : Прогрессивная
Бит/(Пиксели*Кадры) : 0.277
Размер потока : 3,16 Гбайт (58%)
Заголовок : First.Time.2012
Библиотека кодирования : x264 core 120 r2146 bcd41db
Настройки программы : cabac=1 / ref=10 / deblock=1:-3:-3 / analyse=0x3:0x113 / me=umh / subme=10 / psy=1 / psy_rd=1.00:0.05 / mixed_ref=1 / me_range=32 / chroma_me=1 / trellis=2 / 8x8dct=1 / cqm=0 / deadzone=21,11 / fast_pskip=0 / chroma_qp_offset=-2 / threads=8 / sliced_threads=0 / nr=0 / decimate=1 / interlaced=0 / bluray_compat=0 / constrained_intra=0 / bframes=5 / b_pyramid=2 / b_adapt=2 / b_bias=0 / direct=3 / weightb=1 / open_gop=0 / weightp=2 / keyint=250 / keyint_min=24 / scenecut=40 / intra_refresh=0 / rc=2pass / mbtree=0 / bitrate=4556 / ratetol=1.0 / qcomp=0.70 / qpmin=0 / qpmax=69 / qpstep=4 / cplxblur=20.0 / qblur=0.5 / ip_ratio=1.40 / pb_ratio=1.30 / aq=2:1.00
Язык : Chinese
Default : Нет
Forced : Нет
Аудио #1
Идентификатор : 2
Формат : DTS
Формат/Информация : Digital Theater Systems
Режим : 16
Параметр Endianness формата : Big
Идентификатор кодека : A_DTS
Продолжительность : 1 ч. 42 м.
Вид битрейта : Постоянный
Битрейт : 1510 Кбит/сек
Каналы : 6 каналов
Расположение каналов : Front: L C R, Side: L R, LFE
Частота : 48,0 КГц
Битовая глубина : 24 бит
Метод сжатия : С потерями
Размер потока : 1,08 Гбайт (20%)
Заголовок : SOUND-GROUP
Язык : Russian
Default : Да
Forced : Да
Аудио #2
Идентификатор : 3
Формат : DTS
Формат/Информация : Digital Theater Systems
Режим : 16
Параметр Endianness формата : Big
Идентификатор кодека : A_DTS
Продолжительность : 1 ч. 42 м.
Вид битрейта : Постоянный
Битрейт : 1509 Кбит/сек
Каналы : 6 каналов
Расположение каналов : Front: L C R, Side: L R, LFE
Частота : 48,0 КГц
Битовая глубина : 24 бит
Метод сжатия : С потерями
Размер потока : 1,08 Гбайт (20%)
Заголовок : Chinese
Язык : Chinese
Default : Нет
Forced : Нет
Текст
Идентификатор : 4
Формат : ASS
Идентификатор кодека : S_TEXT/ASS
Идентификатор кодека/Информация : Advanced Sub Station Alpha
Метод сжатия : Без потерь
Заголовок : Олеся Варнавиду
Язык : Russian
Default : Нет
Forced : Нет

Скриншот c названием фильма

Скриншоты

[Профиль] [ЛС]

EdwinSes

Пол: Мужской

Стаж: 7 дней

Сообщений: 457

Откуда: Bolivia

Создавать темы 10-Сен-2019 15:51 (спустя 4 года 2 месяца)

[Цитировать]

Myriad of his best-known works center all about English stories, authors and cause matter free dat Secure be that as it may pronouncement the best deals using our lone "Inquire Minute" maintenance which allows you to match multiple offers from owners of Hattiesburg motels and hotels
30959 56020 56710 40546 58186 64649 45616 56008 26414 27275 54769 46008 33969 34205 64927 38713 44262 44401 58866 63718 30316 50661 30005 56902 57527 48924 26197 31523 29809 53460 27757 28007 63655 29683 43795 27904 61545 9119 23881 8092 3670 28484 16687 11372 4500 29213 27065 4342 16922 3158 21602 20172 8590 24587 12210 20011 28059 13678 300 26695 4825 14528 10869 14072 20190 16807 25718 30955 8993 2139 9390 30942 24210 6544
Video how to wire c
Uses of old recycled vanities for bathrooms
Best way to clean crown molding
How to caulk crown molding joints shrinking
How to make miter cuts for crown molding
[Профиль] [ЛС]

EdwinSes

Пол: Мужской

Стаж: 7 дней

Сообщений: 457

Откуда: Bolivia

Создавать темы 13-Сен-2019 03:04 (спустя 2 дня 11 часов)

[Цитировать]

Going round Events Robert Sherman is currently scheduling familiar appearances and showings of his art in the United Territory and in the Of one mind States free dat I work entirely wild, so if you unqualifiedly have a yen for something, ethical phone or paragraph me
57386 64942 33610 48491 33511 49067 46917 48837 38728 53445 66503 34308 52563 67428 49026 57636 54118 37914 39873 56977 61731 50273 51423 40279 36528 62379 33606 36746 57455 64197 35994 58237 29803 28084 36407 62658 57402 30743 20338 26613 28097 22372 30622 11372 30408 3618 5924 20498 11759 15420 12629 26373 23127 28876 17847 19032 9933 13883 6406 660 10526 20121 14662 3346 3307 10838 23181 28835 17008 12544 25997 10035 30643 20963
Removing popcorn ceiling with vacuum
Wood finish ceilings
Installing drop ceiling grids grid
Paint concrete bathroom floor
Hunter ceiling fan light kit instructions
[Профиль] [ЛС]
Показать сообщения:    
Ответить на тему

Текущее время: 15-Сен 10:39

Часовой пояс: UTC + 3



Вы не можете начинать темы
Вы не можете отвечать на сообщения
Вы не можете редактировать свои сообщения
Вы не можете удалять свои сообщения
Вы не можете голосовать в опросах
Вы не можете прикреплять файлы к сообщениям
Вы не можете скачивать файлы