Первый раз First Time (2012 г., романтика, драма)

Ответить на тему
 
Автор Сообщение

wenlana ®

Пол: Женский

Стаж: 4 года 6 месяцев

Сообщений: 134

Создавать темы 25-Июн-2015 16:28

[Цитировать]

Первый раз / First Time
Страна: Китай
Жанр: романтика, драма
Год выпуска: 2012
Продолжительность: 01:42:45
Перевод: Любительский (многоголосый закадровый) SOUND-GROUP
Cубтитры: нет
Оригинальная аудиодорожка: нет
Режиссер: Хан Ян / Han Yan-В ролях: Марк Чао, Анджела Бэйби, Цзянь Шан, Тянь Юань, Хуан Сюань, Чжао Инцзюнь, Синди Юань, Бай Байхе и Аллен Чао-Описание: Невероятно трогательный фильм с мощной энергетикой о том, что ради мечты всё-таки стоит рисковать и что самые большие победы приходят именно тогда, когда, забывая о себе, ты помогаешь идти к победе другому человеку.
Судьба сводит бывших одноклассников: больную девушку и не очень удачливого рок-музыканта, который пытается воплотить в жизнь её мечты и сделать её счастливее. Но выясняется, что это вовсе не судьба, и что за событиями на поверхности стоит чей-то хорошо спланированный сценарий. Фильм, однозначно выделяющийся на фоне других азиатских фильмов особой атмосферой и глубиной. Взяв за основу южнокорейский фильм «…ить», создатели по-тайваньски закрутили острый сюжет, по-японски добавили элементы мультипликации, а также в изобилии дополнили и без того роскошный видеоряд винтажными интерьерами, ностальгическими улочками Гонконга, съёмкой с необычных ракурсов, богатой цветовой палитрой и просто великолепными саундреками, чтобы в итоге можно было получать наслаждение буквально от каждой минуты фильма. Очень удачная работа гонконгского кинематографа, оставляющая после просмотра нежное послевкусие.-Доп.информация: озвучено по заказу olessia80-Качество видео: HDRip
Формат видео: AVI
Видео: DivX, 720x304, 24,000 кадра/сек, 1714 Кбит/сек
Аудио: 48,0 КГц, 2 канала,192 Кбит/сек, MPEG Audio (MP3), язык русский (в составе контейнера)
Перевод: Олеся Варнавиду
Озвучка: Sandairina, Ale, Wenlana @SOUND-GROUP

MediaInfo

Формат : AVI
Формат/Информация : Audio Video Interleave
Размер файла : 1,33 Гбайт
Продолжительность : 1 ч. 42 м.
Общий поток : 1851 Кбит/сек
Программа кодирования : VirtualDubMod 1.5.10.2 (build 2542/release)
Библиотека кодирования : VirtualDubMod build 2542/release
Видео
Идентификатор : 0
Формат : MPEG-4 Visual
Профиль формата : Advanced Simple@L5
Параметр BVOP формата : 2
Параметр QPel формата : Нет
Параметр GMC формата : Без точки перехода
Параметр матрицы формата : Default (MPEG)
Идентификатор кодека : DX50
Идентификатор кодека/Подсказка : DivX 5
Продолжительность : 1 ч. 42 м.
Битрейт : 1714 Кбит/сек
Ширина : 720 пикселей
Высота : 304 пикселя
Соотношение сторон : 2,35:1
Частота кадров : 24,000 кадра/сек
Цветовое пространство : YUV
Субдискретизация насыщенности : 4:2:0
Битовая глубина : 8 бит
Тип развёртки : Прогрессивная
Метод сжатия : С потерями
Бит/(Пиксели*Кадры) : 0.326
Размер потока : 1,23 Гбайт (93%)
Библиотека кодирования : XviD 73
Аудио
Идентификатор : 1
Формат : MPEG Audio
Версия формата : Version 1
Профиль формата : Layer 3
Режим : Joint stereo
Расширение режима : MS Stereo
Идентификатор кодека : 55
Идентификатор кодека/Подсказка : MP3
Продолжительность : 1 ч. 42 м.
Вид битрейта : Постоянный
Битрейт : 192 Кбит/сек
Каналы : 2 канала
Частота : 48,0 КГц
Метод сжатия : С потерями
Размер потока : 94,1 Мбайт (7%)
Выравнивание : Соединение по промежуткам
Продолжительность промежутка : 42 мс. (1,00 видеокадр)

Скриншот c названием фильма

Скриншоты

[Профиль] [ЛС]
Показать сообщения:    
Ответить на тему

Текущее время: 15-Сен 11:03

Часовой пояс: UTC + 3



Вы не можете начинать темы
Вы не можете отвечать на сообщения
Вы не можете редактировать свои сообщения
Вы не можете удалять свои сообщения
Вы не можете голосовать в опросах
Вы не можете прикреплять файлы к сообщениям
Вы не можете скачивать файлы