Сколько верёвочке ни виться / Sood Sai Paan / End of the String [17 из 17] [2013, романтика, драма, TVRip][RAW][480p][VO](SOUND-GROUP)

Страницы :  1, 2, 3, 4  След.

Ответить на тему
 
Автор Сообщение

wenlana ®

Пол: Женский

Стаж: 4 года 6 месяцев

Сообщений: 134

Создавать темы 11-Май-2016 21:06

[Цитировать]

Сколько верёвочке ни виться / Sood Sai Paan / End of the String
Страна: Таиланд
Год выпуска: 2013
Жанр: романтика, драма
Продолжительность: 17 серий-В ролях:
Вилл Ваннарот - Ган (Гандаваси) / Ни (Гандамани)
Toomtam Yuthana - Ти (Тити Сурикан)
Guy Ratchanon Sukprakob - лорд Вит Асовакрай
Fang Pitchaya - Напа
Nat Thephasadin - Васан Прасопкун
Ann Alicha - Урай
Apple Aitanik - Рат
Pukhai Pongsiri Bunluewong-Перевод: Одноголосая озвучка-Описание: Это история про девушек-близнецов, старшая из которых скромная девушка и не знает, что у нее есть сестра-близнец, а младшая - кокетка, меняет мужчин, знает про сестру и использует её имя, когда знакомится с мужчинами.
Ти на море знакомится с младшей сестрой Ни, и очень скоро они становятся близки, но узнав, что он беден, она его бросает. Год спустя, всё ещё любя ее, он случайно встречает старшую сестру Ган, считая ее той, с которой познакомился на море. Как бы она не объясняла ему, что она не та, за кого он ее принимает, он ей не верит. Ти начинает её преследовать, и чтобы отвязаться от него, Ган соглашается признать, что она та самая девушка и бросила его, потому что он бедный.
Это ремейк.-Качество видео: TVRip
Формат: MKV
Видео: Xvid 640x480 25fps 1478 Kbps
Аудио: MP3 44100Hz stereo 128kbps Язык Русский (в составе контейнера) ; Озвучка: SOUND-GROUP
Аудио 2: MP3 44100Hz stereo 128kbps Язык Тайский (в составе контейнера)
Субтитры №1: RUS (язык субтитров — русский), только надписи, в составе контейнера | по умолчанию
Субтитры №2: RUS (язык субтитров — русский), полные, в составе контейнера-Перевод предоставлен: Фансаб-группой Альянс
Переводчик: msv24
Редактор: Лариса
Перевод песни: Lonely_Enot
Постер: завиSSимая
Озвучка: одноголосая Wenlana @SOUND-GROUP

Скриншоты

MediaInfo

Формат : Matroska
Версия формата : Version 2
Размер файла : 842 Мбайт
Продолжительность : 1 ч. 6 м.
Общий поток : 1769 Кбит/сек
Название фильма : SoodSaiPaan - 01
Дата кодирования : UTC 2016-05-09 22:05:37
Программа кодирования : mkvmerge v5.7.0 ('The Whirlwind') built on Jul 8 2012 20:08:51
Библиотека кодирования : libebml v1.2.3 + libmatroska v1.3.0
Видео
Идентификатор : 1
Формат : MPEG-4 Visual
Профиль формата : Advanced Simple@L5
Параметр BVOP формата : Да
Параметр QPel формата : Нет
Параметр GMC формата : Без точки перехода
Параметр матрицы формата : Default (H.263)
Идентификатор кодека : V_MS/VFW/FOURCC / XVID
Идентификатор кодека/Подсказка : XviD
Продолжительность : 1 ч. 6 м.
Битрейт : 1478 Кбит/сек
Ширина : 640 пикселей
Высота : 480 пикселей
Соотношение сторон : 4:3
Режим частоты кадров : Постоянный
Частота кадров : 25,000 кадров/сек
Цветовое пространство : YUV
Субдискретизация насыщенности : 4:2:0
Битовая глубина : 8 бит
Тип развёртки : Прогрессивная
Метод сжатия : С потерями
Бит/(Пиксели*Кадры) : 0.192
Размер потока : 703 Мбайт (84%)
Библиотека кодирования : XviD 1.2.1 (UTC 2008-12-04)
Default : Да
Forced : Нет
Аудио #1
Идентификатор : 2
Формат : MPEG Audio
Версия формата : Version 1
Профиль формата : Layer 3
Режим : Joint stereo
Расширение режима : MS Stereo
Идентификатор кодека : A_MPEG/L3
Идентификатор кодека/Подсказка : MP3
Продолжительность : 1 ч. 6 м.
Вид битрейта : Постоянный
Битрейт : 128 Кбит/сек
Каналы : 2 канала
Частота : 44,1 КГц
Метод сжатия : С потерями
Размер потока : 60,9 Мбайт (7%)
Заголовок : [SOUND-GROUP]
Язык : Russian
Default : Да
Forced : Да
Аудио #2
Идентификатор : 3
Формат : MPEG Audio
Версия формата : Version 1
Профиль формата : Layer 3
Режим : Joint stereo
Расширение режима : MS Stereo
Идентификатор кодека : A_MPEG/L3
Идентификатор кодека/Подсказка : MP3
Продолжительность : 1 ч. 6 м.
Вид битрейта : Постоянный
Битрейт : 128 Кбит/сек
Каналы : 2 канала
Частота : 44,1 КГц
Метод сжатия : С потерями
Размер потока : 60,9 Мбайт (7%)
Библиотека кодирования : LAME3.98ЄЄЄЄЄЄЄЄЄЄЄЄ
Язык : Thai
Default : Нет
Forced : Нет
Текст #1
Идентификатор : 4
Формат : ASS
Идентификатор кодека : S_TEXT/ASS
Идентификатор кодека/Информация : Advanced Sub Station Alpha
Метод сжатия : Без потерь
Заголовок : Надписи
Язык : Russian
Default : Да
Forced : Да
Текст #2
Идентификатор : 5
Формат : ASS
Идентификатор кодека : S_TEXT/ASS
Идентификатор кодека/Информация : Advanced Sub Station Alpha
Метод сжатия : Без потерь
Заголовок : [Альянс]
Язык : Russian
Default : Нет
Forced : Нет


Последний раз редактировалось: wenlana (2017-08-02 07:44), всего редактировалось 17 раз(а)
[Профиль] [ЛС]

wenlana ®

Пол: Женский

Стаж: 4 года 6 месяцев

Сообщений: 134

Создавать темы 12-Май-2016 07:09 (спустя 10 часов)

[Цитировать]

Добавлена 3 серия


Последний раз редактировалось: wenlana (2016-05-15 21:52), всего редактировалось 1 раз
[Профиль] [ЛС]

wenlana ®

Пол: Женский

Стаж: 4 года 6 месяцев

Сообщений: 134

Создавать темы 15-Май-2016 21:52 (спустя 3 дня)

[Цитировать]

Добавлена 4 серия
[Профиль] [ЛС]

wenlana ®

Пол: Женский

Стаж: 4 года 6 месяцев

Сообщений: 134

Создавать темы 18-Май-2016 22:40 (спустя 3 дня)

[Цитировать]

Добавлена 5 серия
[Профиль] [ЛС]

wenlana ®

Пол: Женский

Стаж: 4 года 6 месяцев

Сообщений: 134

Создавать темы 22-Май-2016 13:32 (спустя 3 дня)

[Цитировать]

Добавлена 6 серия
[Профиль] [ЛС]

wenlana ®

Пол: Женский

Стаж: 4 года 6 месяцев

Сообщений: 134

Создавать темы 27-Май-2016 00:05 (спустя 4 дня)

[Цитировать]

Добавлена 7 серия
[Профиль] [ЛС]

wenlana ®

Пол: Женский

Стаж: 4 года 6 месяцев

Сообщений: 134

Создавать темы 01-Июн-2016 14:13 (спустя 5 дней)

[Цитировать]

Добавлена 8 серия
[Профиль] [ЛС]

wenlana ®

Пол: Женский

Стаж: 4 года 6 месяцев

Сообщений: 134

Создавать темы 12-Июн-2016 12:52 (спустя 10 дней)

[Цитировать]

Добавлена 9 серия
[Профиль] [ЛС]

wenlana ®

Пол: Женский

Стаж: 4 года 6 месяцев

Сообщений: 134

Создавать темы 15-Июн-2016 22:48 (спустя 3 дня)

[Цитировать]

Добавлена 10 серия
[Профиль] [ЛС]

wenlana ®

Пол: Женский

Стаж: 4 года 6 месяцев

Сообщений: 134

Создавать темы 02-Авг-2016 13:07 (спустя 1 месяц 16 дней)

[Цитировать]

Добавлена 11 серия
[Профиль] [ЛС]

wenlana ®

Пол: Женский

Стаж: 4 года 6 месяцев

Сообщений: 134

Создавать темы 10-Апр-2017 15:37 (спустя 8 месяцев 8 дней)

[Цитировать]

Добавлена 13 серияСледующая серия выйдет, когда наберется необходимая сумма.
[Профиль] [ЛС]

wenlana ®

Пол: Женский

Стаж: 4 года 6 месяцев

Сообщений: 134

Создавать темы 18-Апр-2017 19:40 (спустя 8 дней)

[Цитировать]

Добавлена 14 серияСледующая серия выйдет, когда наберется необходимая сумма.
[Профиль] [ЛС]

wenlana ®

Пол: Женский

Стаж: 4 года 6 месяцев

Сообщений: 134

Создавать темы 07-Июн-2017 02:03 (спустя 1 месяц 18 дней)

[Цитировать]

Добавлена 15 серия
[Профиль] [ЛС]

wenlana ®

Пол: Женский

Стаж: 4 года 6 месяцев

Сообщений: 134

Создавать темы 09-Июл-2017 13:03 (спустя 1 месяц 2 дня)

[Цитировать]

Добавлена 16 серия
[Профиль] [ЛС]

wenlana ®

Пол: Женский

Стаж: 4 года 6 месяцев

Сообщений: 134

Создавать темы 02-Авг-2017 07:44 (спустя 23 дня)

[Цитировать]

Добавлена заключительная 17 серия
[Профиль] [ЛС]
Показать сообщения:    
Ответить на тему

Текущее время: 15-Сен 10:40

Часовой пояс: UTC + 3



Вы не можете начинать темы
Вы не можете отвечать на сообщения
Вы не можете редактировать свои сообщения
Вы не можете удалять свои сообщения
Вы не можете голосовать в опросах
Вы не можете прикреплять файлы к сообщениям
Вы не можете скачивать файлы