Пламенный океан (серия "Огонь", 2 часть) / Talay Fai The Fire Series Part 2 [13/16] [2015, романтика, slap&kiss HDTVRip][720р] VO (SOUND-GROUP)

Страницы :  1, 2, 3  След.

Ответить на тему
 
Автор Сообщение

Sandairina ®

Пол: Женский

Стаж: 4 года 6 месяцев

Сообщений: 68

Создавать темы 03-Июн-2016 15:52

[Цитировать]

Пламенный океан / Fire Series Part 2
Страна: Таиланд
Жанр: романтика / пощечины-поцелуи
Продолжительность: 16 серий по 1ч 30 мин
Год выпуска: 2016 г.
Перевод: Одноголосый закадровый
В ролях: Мик / Mik Thongraya - Тэчин
Стефани / Cat Stephany Auernig - Пасика (Пан)
Кунтчесон / Gun-Jae-Sal - Тжирайю (Тжиу)
Прат / Prach Poramin - Пасин (Пат)
Уи / Oui Kriengkrai Oonhanun - Анупон
Сэмми / Sammy Cowell - Пирая (Пин)
Тан / Thunwa Suriyajak - Панат (Нон)
Описание: Когда Пасика узнаёт о том, что у отца есть любовница, ее привычный мир рушится. Пытаясь убежать от горькой правды, Пасика уезжает на Жемчужный остров, где знакомится с хозяином отеля Анупоном. Мужчина помогает девушке устроится и постепенно становится для героини вторым отцом.
Появление бывшей жены Анупона и его сына, Тэчина, вносит бурю событий в мирный океан. Налини обвиняет Пасику в любовной связи с Анупоном.
Пасика и Тэчин окажутся в центре бушующих событий, когда кто-то устроит покушение сначала на Анупона, а потом и на саму Пасику.
Никому не спастись от пламенного шторма, который Пасика и Тэчин должны усмирить вместе...
Доп. информация:
Русские субтитры: ФСГ АЛЬЯНC
редакция - Hatshepsut
перевод - Алена, Hatshepsut, Loveless
тайминг, оформление - msv24, mar222ina, Hatshepsut
Озвучивание: Sandairina
Русские субтитры: нет
Неотключаемые субтитры: Полухардсаб
Оригинальная аудиодорожка: нет
Формат видео: MP4
Качество видео: HDTVRip
Видео кодек: MPEG2
Аудио кодек: AC3
Видео: AVC1, 1280х720, 25.000fps, 2 070 Kbps
Аудио: AC-3, 192 Kbps, 48.0 KHz
Сэмпл: https://yadi.sk/mail/?hash=LfLUXNV6SXXJWqD339RpjcNu...mp;uid=142586922

МедиаИнфо

Format : MPEG-4
Format profile : Base Media
Codec ID : isom
File size : 1.51 GiB
Duration : 1h 35mn
Overall bit rate : 2 270 Kbps
Encoded date : UTC 2016-06-01 21:06:49
Tagged date : UTC 2016-06-01 21:06:49
Video
ID : 1
Format : AVC
Format/Info : Advanced Video Codec
Format profile : High@L4.1
Format settings, CABAC : Yes
Format settings, ReFrames : 5 frames
Codec ID : avc1
Codec ID/Info : Advanced Video Coding
Duration : 1h 35mn
Bit rate : 2 070 Kbps
Maximum bit rate : 6 183 Kbps
Width : 1 280 pixels
Height : 720 pixels
Display aspect ratio : 16:9
Frame rate mode : Constant
Frame rate : 25.000 fps
Color space : YUV
Chroma subsampling : 4:2:0
Bit depth : 8 bits
Scan type : Progressive
Bits/(Pixel*Frame) : 0.090
Stream size : 1.39 GiB (91%)
Writing library : x264 core 130 r2273 b3065e6
Encoding settings : cabac=1 / ref=5 / deblock=1:-2:-1 / analyse=0x3:0x133 / me=hex / subme=4 / psy=1 / psy_rd=1.00:0.00 / mixed_ref=0 / me_range=16 / chroma_me=1 / trellis=1 / 8x8dct=1 / cqm=0 / deadzone=21,11 / fast_pskip=1 / chroma_qp_offset=0 / threads=12 / lookahead_threads=3 / sliced_threads=0 / nr=0 / decimate=1 / interlaced=0 / bluray_compat=0 / constrained_intra=0 / bframes=5 / b_pyramid=2 / b_adapt=1 / b_bias=0 / direct=1 / weightb=1 / open_gop=0 / weightp=2 / keyint=250 / keyint_min=25 / scenecut=40 / intra_refresh=0 / rc_lookahead=20 / rc=abr / mbtree=1 / bitrate=2070 / ratetol=1.0 / qcomp=0.60 / qpmin=10 / qpmax=51 / qpstep=4 / vbv_maxrate=62500 / vbv_bufsize=78125 / nal_hrd=none / ip_ratio=1.40 / aq=1:1.00
Encoded date : UTC 2016-06-01 21:06:49
Tagged date : UTC 2016-06-01 21:08:44
Audio
ID : 2
Format : AC-3
Format/Info : Audio Coding 3
Mode extension : CM (complete main)
Format settings, Endianness : Big
Codec ID : ac-3
Duration : 1h 35mn
Bit rate mode : Constant
Bit rate : 192 Kbps
Channel(s) : 2 channels
Channel positions : Front: L R
Sampling rate : 48.0 KHz
Bit depth : 16 bits
Compression mode : Lossy
Stream size : 131 MiB (8%)
Encoded date : UTC 2016-06-01 21:08:35
Tagged date : UTC 2016-06-01 21:08:44

Скриншоты

Пожалуйста, оставайтесь на раздаче как можно дольше!ВНИМАНИЕ!
Лакорн озвучивается при поддержке зрителей.
Подробности у нас в группе вконтакте: https://vk.com/topic-54852221_33859779


Последний раз редактировалось: Sandairina (2018-11-13 15:29), всего редактировалось 8 раз(а)
[Профиль] [ЛС]

Sandairina ®

Пол: Женский

Стаж: 4 года 6 месяцев

Сообщений: 68

Создавать темы 04-Окт-2017 09:01 (спустя 1 год 4 месяца)

[Цитировать]

ВНИМАНИЕ!
Лакорн озвучивается при поддержке зрителей.
Подробности у нас в группе вконтакте: https://vk.com/topic-54852221_33859779


Последний раз редактировалось: Sandairina (2018-11-13 15:31), всего редактировалось 1 раз
[Профиль] [ЛС]

Sandairina ®

Пол: Женский

Стаж: 4 года 6 месяцев

Сообщений: 68

Создавать темы 04-Апр-2018 18:56 (спустя 6 месяцев)

[Цитировать]

Добавлены 7-ая, 8-ая и 9-ая серии!
[Профиль] [ЛС]

Sandairina ®

Пол: Женский

Стаж: 4 года 6 месяцев

Сообщений: 68

Создавать темы 13-Ноя-2018 15:33 (спустя 7 месяцев 8 дней)

[Цитировать]

Добавлены 10 - 13 серии! Приятного просмотра.
[Профиль] [ЛС]

marysichka

Пол: Не указан

Стаж: 1 год 8 месяцев

Сообщений: 7

Создавать темы 03-Дек-2018 02:44 (спустя 19 дней)

[Цитировать]

Спасибо большое!
[Профиль] [ЛС]

Larrysloth

Пол: Мужской

Стаж: 10 дней

Сообщений: 1

Откуда: Ecuador

Создавать темы 06-Сен-2019 00:04 (спустя 9 месяцев 2 дня)

[Цитировать]

Diva Mask - против облысения для мужчин
Маска для волос «DIVA MASK»: - помогает
сократить выпадение волос - укрепляет
структуру и корни - способствует росту
новых волос - придает волосам свежий и
здоровый вид
https://ur-l.ru/IJc6w
[Профиль] [ЛС]

EdwinSes

Пол: Мужской

Стаж: 7 дней

Сообщений: 457

Откуда: Bolivia

Создавать темы 09-Сен-2019 03:09 (спустя 3 дня)

[Цитировать]

In scholarship distinct is profoundly key because without it all your lessons will not be stored war frame Gjestene deler crotchety, og fasilitetene inkluderer bide, harfoner og tofler
65150 50787 36530 41895 44725 67403 51288 46972 35100 31036 31632 26189 48409 61857 44691 50020 31385 55499 48517 37555 27731 57586 50973 58690 60963 46352 33036 39824 39582 29001 53312 56274 60321 38700 27876 53704 58720 1773 784 19800 17824 16512 23959 22372 13394 21447 27394 26181 28326 13699 30231 13678 4829 25280 14242 6636 22221 22647 6857 11927 21001 11182 2661 27958 12839 23181 23433 10761 4894 6370 11298 5378 23900 19356
How to build a tile bathroom countertop
Creative ideas for acoustic ceilings installation definition
Remove false ceiling
Designer master bathrooms
German design kitchen faucets
[Профиль] [ЛС]

Larrytar

Пол: Мужской

Стаж: 12 дней

Сообщений: 240

Откуда: Greece

Создавать темы 09-Сен-2019 13:51 (спустя 10 часов)

[Цитировать]

lasix 40 mg buy lasix online without prescription <a href=http://lolasix.info/#>lasix online</a>
[Профиль] [ЛС]

Larrytar

Пол: Мужской

Стаж: 12 дней

Сообщений: 240

Откуда: Greece

Создавать темы 09-Сен-2019 13:52 (спустя 35 секунд)

[Цитировать]

generic lasix where buy lasix <a href=http://lolasix.info/#>lasix online</a>
[Профиль] [ЛС]

Larrytar

Пол: Мужской

Стаж: 12 дней

Сообщений: 240

Откуда: Greece

Создавать темы 09-Сен-2019 13:52 (спустя 34 секунды)

[Цитировать]

lasix buy furosemide no prescription <a href=http://lolasix.info/#>generic lasix</a>
[Профиль] [ЛС]

Larrytar

Пол: Мужской

Стаж: 12 дней

Сообщений: 240

Откуда: Greece

Создавать темы 09-Сен-2019 13:53 (спустя 24 секунды)

[Цитировать]

lasix cheap order furosemide <a href=http://lolasix.info/#>buy generic lasix</a>
[Профиль] [ЛС]

Larrytar

Пол: Мужской

Стаж: 12 дней

Сообщений: 240

Откуда: Greece

Создавать темы 09-Сен-2019 13:53 (спустя 31 секунда)

[Цитировать]

lasix lasix cheap <a href=http://lolasix.info/#>purchase lasix online no prescription</a>
[Профиль] [ЛС]

Larrytar

Пол: Мужской

Стаж: 12 дней

Сообщений: 240

Откуда: Greece

Создавать темы 09-Сен-2019 13:54 (спустя 35 секунд)

[Цитировать]

generic lasix lasix <a href=http://lolasix.info/#>lasix generic</a>
[Профиль] [ЛС]

Larrytar

Пол: Мужской

Стаж: 12 дней

Сообщений: 240

Откуда: Greece

Создавать темы 09-Сен-2019 13:54 (спустя 25 секунд)

[Цитировать]

lasix 100 mg buy lasix online <a href=http://lolasix.info/#>buy lasix no rx</a>
[Профиль] [ЛС]

Larrytar

Пол: Мужской

Стаж: 12 дней

Сообщений: 240

Откуда: Greece

Создавать темы 09-Сен-2019 13:55 (спустя 24 секунды)

[Цитировать]

buy lasix usa buy lasix no rx <a href=http://lolasix.info/#>buy lasix medication</a>
[Профиль] [ЛС]
Показать сообщения:    
Ответить на тему

Текущее время: 15-Сен 10:39

Часовой пояс: UTC + 3



Вы не можете начинать темы
Вы не можете отвечать на сообщения
Вы не можете редактировать свои сообщения
Вы не можете удалять свои сообщения
Вы не можете голосовать в опросах
Вы не можете прикреплять файлы к сообщениям
Вы не можете скачивать файлы