Сладкая ложь / Kon Ruk Luang Jai [16 из 16] [Таиланд 2011, романтика, TVRip] [RAW] [360p] [VO] (SOUND-GROUP)

Страницы :  1, 2, 3, 4, 5  След.

Ответить на тему
 
Автор Сообщение

wenlana ®

Пол: Женский

Стаж: 4 года 6 месяцев

Сообщений: 134

Создавать темы 21-Авг-2016 19:03

[Цитировать]

Сладкая ложь / Kon Ruk Luang Jai
Страна: Тайланд
Год выпуска: 2011
Жанр: романтика
Продолжительность: 16 серий-В ролях: Ken Theeradeth Wonpuapan - Ран
Janie Tienphosuwan - Буа
Sara Legge - Ринрада (Рин)
Not Vorarit Fuangarome - Сиа Пэт
Noey Chotika Wongwilas - Орм
Boy Chokchai Boonworametee - Чачай
Selina Pearce - Катун (Тун)-Перевод: Одноголосая озвучка-Описание: Ран - секретарь тайского посла в Праге. Мама подыскала ему невесту, но Ран еще не готов жениться. Он обращается за помощью к своему лучшему другу Сиа Пэту.
Буа - сестра Сиа Пэта, подслушивает их телефонный разговор, в котором Ран просит найти ему фальшивую девушку и отправить ее в Прагу.
Буа влюблена в Рана с детства. Ей тоже уже подыскали жениха, который ей совсем не нужен.
Тогда она решает притвориться девушкой по вызову, которую нанял ее брат на роль фальшивой невесты, и отправляется в Прагу.-Неотключаемые субтитры: полухардсаб (надписи)
Качество видео: TVRip
Формат: MPEG-4
Видео: AVC 480х360 29.970fps 574 kbps
Аудио: MP3 44.1KHz stereo 128 Кбит/сек; Язык Русский (в составе контейнера) ; Озвучка: (одноголосая), SOUND-GROUP-Перевод: ФГС Альянс
Переводчики:
1-3, 6-7, 12-13 серии Лижбет 4-5, 8-11, 14-16 серии Sandairina
Редакторы: 1-2 серии Luv, 3-6 серии Sofiko, с 7 серии ksilnew
Тайминг: 1 - 14 серии Sandairina, 15 -16 серии galya1981
Перевод песен: Hatshepsut и Sandairina

Озвучка: одноголосая Wenlana @SOUND-GROUP

Скриншоты

MediaInfo

Формат : MPEG-4
Профиль формата : Base Media
Идентификатор кодека : isom
Размер файла : 480 Мбайт
Продолжительность : 1 ч. 35 м.
Общий поток : 706 Кбит/сек
Дата кодирования : UTC 2016-06-02 00:53:58
Дата пометки : UTC 2016-06-02 00:53:58
Видео
Идентификатор : 1
Формат : AVC
Формат/Информация : Advanced Video Codec
Профиль формата : High@L4.1
Параметр CABAC формата : Да
Параметр ReFrames формата : 5 кадров
Идентификатор кодека : avc1
Идентификатор кодека/Информация : Advanced Video Coding
Продолжительность : 1 ч. 35 м.
Битрейт : 574 Кбит/сек
Максимальный битрейт : 1803 Кбит/сек
Ширина : 480 пикселей
Высота : 360 пикселей
Соотношение сторон : 4:3
Режим частоты кадров : Постоянный
Частота кадров : 29,970 кадров/сек
Цветовое пространство : YUV
Субдискретизация насыщенности : 4:2:0
Битовая глубина : 8 бит
Тип развёртки : Прогрессивная
Бит/(Пиксели*Кадры) : 0.111
Размер потока : 390 Мбайт (81%)
Библиотека кодирования : x264 core 130 r2273 b3065e6
Настройки программы : cabac=1 / ref=5 / deblock=1:-2:-1 / analyse=0x3:0x133 / me=hex / subme=4 / psy=1 / psy_rd=1.00:0.00 / mixed_ref=0 / me_range=16 / chroma_me=1 / trellis=1 / 8x8dct=1 / cqm=0 / deadzone=21,11 / fast_pskip=1 / chroma_qp_offset=0 / threads=6 / lookahead_threads=1 / sliced_threads=0 / nr=0 / decimate=1 / interlaced=0 / bluray_compat=0 / constrained_intra=0 / bframes=5 / b_pyramid=2 / b_adapt=1 / b_bias=0 / direct=3 / weightb=1 / open_gop=0 / weightp=2 / keyint=250 / keyint_min=25 / scenecut=40 / intra_refresh=0 / rc_lookahead=20 / rc=2pass / mbtree=1 / bitrate=574 / ratetol=1.0 / qcomp=0.60 / qpmin=10 / qpmax=51 / qpstep=4 / cplxblur=20.0 / qblur=0.5 / vbv_maxrate=62500 / vbv_bufsize=78125 / nal_hrd=none / ip_ratio=1.40 / aq=1:1.00
Дата кодирования : UTC 2016-06-02 00:53:58
Дата пометки : UTC 2016-06-02 00:54:08
Аудио
Идентификатор : 2
Формат : MPEG Audio
Версия формата : Version 1
Профиль формата : Layer 3
Режим : Joint stereo
Расширение режима : MS Stereo
Идентификатор кодека : 6B
Продолжительность : 1 ч. 35 м.
Вид битрейта : Постоянный
Битрейт : 128 Кбит/сек
Максимальный битрейт : 134 Кбит/сек
Каналы : 2 канала
Частота : 44,1 КГц
Метод сжатия : С потерями
Задержка видео : 67 мс.
Размер потока : 87,0 Мбайт (18%)
Дата кодирования : UTC 2016-06-02 00:54:07
Дата пометки : UTC 2016-06-02 00:54:08


Последний раз редактировалось: wenlana (2017-07-23 05:01), всего редактировалось 15 раз(а)
[Профиль] [ЛС]

wenlana ®

Пол: Женский

Стаж: 4 года 6 месяцев

Сообщений: 134

Создавать темы 28-Авг-2016 14:27 (спустя 6 дней)

[Цитировать]

Добавлена 4 серия
[Профиль] [ЛС]

wenlana ®

Пол: Женский

Стаж: 4 года 6 месяцев

Сообщений: 134

Создавать темы 21-Окт-2016 22:34 (спустя 1 месяц 24 дня)

[Цитировать]

Добавлена 5 серия
[Профиль] [ЛС]

wenlana ®

Пол: Женский

Стаж: 4 года 6 месяцев

Сообщений: 134

Создавать темы 30-Окт-2016 16:26 (спустя 8 дней)

[Цитировать]

Добавлена 6 серия
[Профиль] [ЛС]

wenlana ®

Пол: Женский

Стаж: 4 года 6 месяцев

Сообщений: 134

Создавать темы 12-Дек-2016 23:50 (спустя 1 месяц 13 дней)

[Цитировать]

Добавлена 7 серия
[Профиль] [ЛС]

wenlana ®

Пол: Женский

Стаж: 4 года 6 месяцев

Сообщений: 134

Создавать темы 25-Дек-2016 19:03 (спустя 12 дней)

[Цитировать]

Добавлена 8 серия
[Профиль] [ЛС]

wenlana ®

Пол: Женский

Стаж: 4 года 6 месяцев

Сообщений: 134

Создавать темы 11-Янв-2017 04:09 (спустя 16 дней)

[Цитировать]

Добавлена 9 серия
[Профиль] [ЛС]

wenlana ®

Пол: Женский

Стаж: 4 года 6 месяцев

Сообщений: 134

Создавать темы 25-Янв-2017 23:41 (спустя 14 дней)

[Цитировать]

Добавлена 10 серия
[Профиль] [ЛС]

wenlana ®

Пол: Женский

Стаж: 4 года 6 месяцев

Сообщений: 134

Создавать темы 07-Фев-2017 18:23 (спустя 12 дней)

[Цитировать]

Добавлена 11 серия
[Профиль] [ЛС]

wenlana ®

Пол: Женский

Стаж: 4 года 6 месяцев

Сообщений: 134

Создавать темы 11-Мар-2017 05:30 (спустя 1 месяц 3 дня)

[Цитировать]

Добавлена 12 серия
[Профиль] [ЛС]

wenlana ®

Пол: Женский

Стаж: 4 года 6 месяцев

Сообщений: 134

Создавать темы 29-Мар-2017 04:19 (спустя 17 дней)

[Цитировать]

Добавлена 13 серия
[Профиль] [ЛС]

skameykin22

Пол: Мужской

Стаж: 2 года 5 месяцев

Сообщений: 1

Откуда: Санкт-Петербург

Создавать темы 02-Апр-2017 10:17 (спустя 4 дня)

[Цитировать]

Мне понравилось.
[Профиль] [ЛС]

wenlana ®

Пол: Женский

Стаж: 4 года 6 месяцев

Сообщений: 134

Создавать темы 07-Май-2017 17:53 (спустя 1 месяц 5 дней)

[Цитировать]

Добавлена 14 серия
[Профиль] [ЛС]

wenlana ®

Пол: Женский

Стаж: 4 года 6 месяцев

Сообщений: 134

Создавать темы 02-Июн-2017 05:10 (спустя 25 дней)

[Цитировать]

Добавлена 15 серия
[Профиль] [ЛС]

wenlana ®

Пол: Женский

Стаж: 4 года 6 месяцев

Сообщений: 134

Создавать темы 23-Июл-2017 05:02 (спустя 1 месяц 20 дней)

[Цитировать]

Добавлена 16 заключительная серия
[Профиль] [ЛС]
Показать сообщения:    
Ответить на тему

Текущее время: 15-Сен 10:50

Часовой пояс: UTC + 3



Вы не можете начинать темы
Вы не можете отвечать на сообщения
Вы не можете редактировать свои сообщения
Вы не можете удалять свои сообщения
Вы не можете голосовать в опросах
Вы не можете прикреплять файлы к сообщениям
Вы не можете скачивать файлы