Поезд в Пусан [2016, Южная Корея,ужасы, боевик, триллер, WEBDLRip-AVC] DVO + Original Kor + Sub Rus

Ответить на тему
 
Автор Сообщение

BOPOH ®

Пол: Не указан

Стаж: 4 года 6 месяцев

Сообщений: 54

Создавать темы 17-Сен-2016 20:42

[Цитировать]

Поезд в Пусан
Год выпуска: 2016
Страна: Южная Корея
Жанр: ужасы, боевик, триллер
Продолжительность: 01:58:00
Перевод: Любительский (двухголосый закадровый)
Русские субтитры: есть
Режиссер: Ён СанХо / Yeon Sang-ho
В ролях: ГонЮ, Ма ДонСок, Чон ЮМи, Чхве УШик, Ан СоХи, Ким СуАн, Ким ЫйСон
Описание: Из-за загадочных вспышек вируса объявлено чрезвычайное положение. Скоростной поезд-экспресс в Пусан стал временным убежищем для тех, кто смог вырваться из охваченного загадочной эпидемией Сеула. Случайные пассажиры не предполагали, что их билет на этот поезд станет счастливым, но вот надолго ли — добро пожаловать на борт и постарайтесь остаться в живых.
Релиз группы:
Доп. информация:
Перевод осуществляла команда фансаб-группы "Zipper"
Озвучивание: Ворон и Wenlana
Смотреть обязательно с форсированными субтитрами на надписи!
Прежде чем качать видео и комментировать, скачайте сэмпл и послушайте!

Качество видео: WEBDLRip-AVC - Сэмпл
Исходник: Train.To.Busan.2016.1080p.WEB-DL.H264.AAC-WEBHD
Формат видео: MKV
Видео: 720x384 (1,85:1), 23,976 fps, x264 ~2034 kbps avg, 0.307 bit/pixel
Аудио: 48 kHz, AC3 Dolby Digital, 2/0 (L,R) ch, ~224 kbps (Русский)
Аудио 2: 48 kHz, AC3 Dolby Digital, 2/0 (L,R) ch, ~224 kbps (Китайский)
Формат субтитров: [форсированный(надписи) / полные]softsub (ass)

Скриншоты

отчет MediaInfo

Формат : Matroska
Версия формата : Version 4 / Version 2
Размер файла : 2,05 Гбайт
Продолжительность : 1 ч. 58 м.
Общий поток : 2484 Кбит/сек
Дата кодирования : UTC 2016-09-17 17:18:02
Программа кодирования : mkvmerge v8.2.0 ('World of Adventure') 32bit
Библиотека кодирования : libebml v1.3.1 + libmatroska v1.4.2
Видео
Идентификатор : 1
Формат : AVC
Формат/Информация : Advanced Video Codec
Профиль формата : High@L4.1
Параметр CABAC формата : Да
Параметр ReFrames формата : 9 кадров
Идентификатор кодека : V_MPEG4/ISO/AVC
Продолжительность : 1 ч. 58 м.
Битрейт : 2034 Кбит/сек
Ширина : 720 пикселей
Высота : 384 пикселя
Соотношение сторон : 1,85:1
Режим частоты кадров : Постоянный
Частота кадров : 23,976 (24000/1001) кадра/сек
Цветовое пространство : YUV
Субдискретизация насыщенности : 4:2:0
Битовая глубина : 8 бит
Тип развёртки : Прогрессивная
Бит/(Пиксели*Кадры) : 0.307
Размер потока : 1,68 Гбайт (82%)
Библиотека кодирования : x264 core 148 r2638 7599210
Настройки программы : cabac=1 / ref=9 / deblock=1:-2:-1 / analyse=0x3:0x133 / me=umh / subme=10 / psy=1 / psy_rd=1.00:0.00 / mixed_ref=1 / me_range=24 / chroma_me=1 / trellis=2 / 8x8dct=1 / cqm=0 / deadzone=21,11 / fast_pskip=0 / chroma_qp_offset=-2 / threads=6 / lookahead_threads=1 / sliced_threads=0 / nr=0 / decimate=0 / interlaced=0 / bluray_compat=0 / constrained_intra=0 / bframes=9 / b_pyramid=2 / b_adapt=2 / b_bias=0 / direct=3 / weightb=1 / open_gop=1 / weightp=2 / keyint=240 / keyint_min=23 / scenecut=40 / intra_refresh=0 / rc_lookahead=60 / rc=2pass / mbtree=0 / bitrate=2034 / ratetol=1.0 / qcomp=0.70 / qpmin=10 / qpmax=51 / qpstep=4 / cplxblur=20.0 / qblur=0.5 / vbv_maxrate=62500 / vbv_bufsize=78125 / nal_hrd=none / filler=0 / ip_ratio=1.40 / pb_ratio=1.30 / aq=1:1.00
Язык : English
Default : Да
Forced : Нет
Цветовой диапазон : Limited
Коэффициенты матрицы : BT.709
Аудио #1
Идентификатор : 2
Формат : AC-3
Формат/Информация : Audio Coding 3
Расширение режима : CM (complete main)
Параметр Endianness формата : Big
Идентификатор кодека : A_AC3
Продолжительность : 1 ч. 58 м.
Вид битрейта : Постоянный
Битрейт : 224 Кбит/сек
Каналы : 2 канала
Расположение каналов : Front: L R
Частота : 48,0 КГц
Частота кадров : 31,250 кадров/сек (1536 spf)
Метод сжатия : С потерями
Размер потока : 189 Мбайт (9%)
Заголовок : Ворон и Wenlana
Язык : Russian
Default : Да
Forced : Нет
Аудио #2
Идентификатор : 3
Формат : AC-3
Формат/Информация : Audio Coding 3
Расширение режима : CM (complete main)
Параметр Endianness формата : Big
Идентификатор кодека : A_AC3
Продолжительность : 1 ч. 58 м.
Вид битрейта : Постоянный
Битрейт : 224 Кбит/сек
Каналы : 2 канала
Расположение каналов : Front: L R
Частота : 48,0 КГц
Частота кадров : 31,250 кадров/сек (1536 spf)
Метод сжатия : С потерями
Размер потока : 189 Мбайт (9%)
Заголовок : Original
Язык : Korean
Default : Нет
Forced : Нет
Текст #1
Идентификатор : 4
Формат : ASS
Идентификатор кодека : S_TEXT/ASS
Идентификатор кодека/Информация : Advanced Sub Station Alpha
Продолжительность : 1 ч. 53 м.
Битрейт : 2 бит/сек
Count of elements : 20
Метод сжатия : Без потерь
Размер потока : 2,23 Кбайт (0%)
Заголовок : форсированный(надписи)
Язык : Russian
Default : Да
Forced : Да
Текст #2
Идентификатор : 5
Формат : ASS
Идентификатор кодека : S_TEXT/ASS
Идентификатор кодека/Информация : Advanced Sub Station Alpha
Продолжительность : 1 ч. 53 м.
Битрейт : 75 бит/сек
Count of elements : 854
Метод сжатия : Без потерь
Размер потока : 62,9 Кбайт (0%)
Заголовок : Перевод - [Фансаб-группа Zipper]
Язык : Russian
Default : Нет
Forced : Нет

Пример Субтитров

Dialogue: 0,0:04:45.44,0:04:46.54,Default,,0000,0000,0000,,Слушаю.
Dialogue: 0,0:04:47.10,0:04:49.02,Default,,0000,0000,0000,,Нам надо все активы продать.
Dialogue: 0,0:04:49.42,0:04:50.60,Default,,0000,0000,0000,,Сразу все?
Dialogue: 0,0:04:50.85,0:04:51.40,Default,,0000,0000,0000,,Да.
Dialogue: 0,0:04:52.05,0:04:54.22,Default,,0000,0000,0000,,Но мы очень рискуем.
Dialogue: 0,0:04:54.58,0:04:56.30,Default,,0000,0000,0000,,Возможно, будет лучше сохранить хоть немного.
Dialogue: 0,0:04:56.52,0:04:58.32,Default,,0000,0000,0000,,И подождать улучшения ситуации...
Dialogue: 0,0:04:58.34,0:04:59.20,Default,,0000,0000,0000,,Помощник Ким.
Dialogue: 0,0:04:59.58,0:05:00.36,Default,,0000,0000,0000,,Да.
Dialogue: 0,0:05:01.38,0:05:03.66,Default,,0000,0000,0000,,Ты можешь просто сделать то, что я говорю?
Dialogue: 0,0:05:05.74,0:05:07.46,Default,,0000,0000,0000,,Продавай всё, будем ждать другой возможности.
Dialogue: 0,0:05:08.76,0:05:09.42,Default,,0000,0000,0000,,Хорошо.
Dialogue: 0,0:05:12.50,0:05:14.02,Default,,0000,0000,0000,,Подожди секунду.
Dialogue: 0,0:05:15.28,0:05:19.40,Default,,0000,0000,0000,,Ты знаешь, что в последнее время нравится детям?
Dialogue: 0,0:05:25.24,0:05:29.34,Default,,0000,0000,0000,,Забудь. Мы и так уже вытрепали с тобой друг другу все нервы.
Dialogue: 0,0:05:29.56,0:05:32.30,Default,,0000,0000,0000,,Слушай, это твоё личное дело.
Dialogue: 0,0:05:32.34,0:05:33.88,Default,,0000,0000,0000,,СуАн останется со мной.
Dialogue: 0,0:05:34.00,0:05:35.90,Default,,0000,0000,0000,,С чего это ты принял такое решение?
Dialogue: 0,0:05:36.32,0:05:37.90,Default,,0000,0000,0000,,Как давно ты общался с СуАн?
Dialogue: 0,0:05:39.30,0:05:41.90,Default,,0000,0000,0000,,Она мне сказала, что завтра поедет ко мне, даже если ей придётся ехать одной.
Dialogue: 0,0:05:42.70,0:05:43.78,Default,,0000,0000,0000,,Ты знал об этом?
Dialogue: 0,0:05:44.16,0:05:45.90,Default,,0000,0000,0000,,Эй, что за...
Dialogue: 0,0:05:46.92,0:05:48.90,Default,,0000,0000,0000,,Ох, что за человек...
Dialogue: 0,0:05:48.98,0:05:50.78,Default,,0000,0000,0000,,Куда она одна поедет...
Dialogue: 0,0:05:51.08,0:05:52.80,Default,,0000,0000,0000,,Тогда ты бросаешь всё и приезжаешь.
Dialogue: 0,0:05:53.40,0:05:54.64,Default,,0000,0000,0000,,Она соскучилась!
Dialogue: 0,0:05:55.10,0:05:56.06,Default,,0000,0000,0000,,У меня завтра не получится.
Dialogue: 0,0:05:56.50,0:05:58.98,Default,,0000,0000,0000,,Ты ведь не забыл, что завтра её день рождения?
Dialogue: 0,0:05:59.50,0:06:00.32,Default,,0000,0000,0000,,Я знаю!
Dialogue: 0,0:06:28.70,0:06:29.74,Default,,0000,0000,0000,,Ужинать будешь?
Dialogue: 0,0:06:30.04,0:06:31.12,Default,,0000,0000,0000,,Не хочу.
Dialogue: 0,0:06:31.62,0:06:32.38,Default,,0000,0000,0000,,Где СуАн?
Субтитры выложены с разрешения фансаб-группы "Zipper"
[Профиль] [ЛС]

simka

Пол: Не указан

Стаж: 3 года 11 месяцев

Сообщений: 5

Создавать темы 24-Сен-2016 21:43 (спустя 7 дней)

[Цитировать]

Зомби не че так, а фильм мне не понравися
Спасибо за озвучку ba ab as
[Профиль] [ЛС]
Показать сообщения:    
Ответить на тему

Текущее время: 15-Сен 10:55

Часовой пояс: UTC + 3



Вы не можете начинать темы
Вы не можете отвечать на сообщения
Вы не можете редактировать свои сообщения
Вы не можете удалять свои сообщения
Вы не можете голосовать в опросах
Вы не можете прикреплять файлы к сообщениям
Вы не можете скачивать файлы