Никогда не говори "Прощай" / Never Said Goodbye (Линь Юйсень / Lin Yuhsien) [2016, Китай, Южная Корея, мелодрама, романтика, HDTVRip-AVC] DVO + Original Chi-Kor + Sub Rus

Ответить на тему
 
Автор Сообщение

BOPOH ®

Пол: Не указан

Стаж: 4 года 6 месяцев

Сообщений: 54

Создавать темы 17-Окт-2016 21:51

[Цитировать]

Никогда не говори "Прощай" / Never Said Goodbye
Год выпуска: 2016
Страна: Китай, Южная Корея
Жанр: мелодрама, романтика
Продолжительность: 01:39:37
Перевод: Любительский (двухголосый закадровый)
Cубтитры: китайский/английский хардсаб
Русские субтитры: есть
Режиссер: Линь Юйсень / Lin Yuhsien
В ролях: И ДжунКи, Чжоу Дунюй, Этан Жуань
Описание: Он полюбил её с первого взгляда и готов был пойти на всё ради её счастья. Простой корейский парень ДжунХо посвятил всего себя молодой китаянке СяоЮ. Когда ей было плохо, когда она грустила, плакала, он всегда был рядом с ней и пытался подарить ей улыбку. Но, даже проехав вслед за СяоЮ полмира, пролетев от Шанхая до Сицилии и обратно, завоевав её сердце, ДжунХо не смог остаться рядом с ней. Что заставило его отказаться от той, кого он любил? И сможет ли она забыть и простить его? © Grape-Snail
Релиз группы:
Доп. информация:
Перевод осуществляла команда фансаб-группы "Zipper"
Перевод, Редакция и тайпсет: Nora Histon, Seonbaggirl, Al-Dragon, FireQueen и DiKey
Озвучивание: Ворон и Wenlana
Смотреть обязательно с форсированными субтитрами на надписи!
Прежде чем качать видео и комментировать, скачайте сэмпл и послушайте!

Качество видео: HDTVRip-AVC - Сэмпл
Исходник: Never.Said.Goodbye.2016.HD1080P.X264.AAC
Формат видео: MKV
Видео: 720x304 (2,35:1), 25,000 fps, x264 ~1723 kbps avg, 0.315 bit/pixel
Аудио: 48 kHz, AC3 Dolby Digital, 2/0 (L,R) ch, ~192 kbps (Русский)
Аудио 2: 48 kHz, AC3 Dolby Digital, 2/0 (L,R) ch, ~192 kbps (Китайский-Корейский)
Формат субтитров: [форсированный(надписи) / полные]softsub (ass)

Скриншоты

отчет MediaInfo

Формат : Matroska
Версия формата : Version 4 / Version 2
Размер файла : 1,47 Гбайт
Продолжительность : 1 ч. 39 м.
Общий поток : 2115 Кбит/сек
Дата кодирования : UTC 2016-10-17 18:33:38
Программа кодирования : mkvmerge v8.2.0 ('World of Adventure') 32bit
Библиотека кодирования : libebml v1.3.1 + libmatroska v1.4.2
Attachments : ARIALN.TTF / ARIALNB.TTF / ARIALNBI.TTF / Ballarea Typeface.otf / Ballarea TypefaceCYR.otf / calibri.ttf / calibrib.ttf / calibrii.ttf / calibriz.ttf / Ventography_Personal_Use_Only.ttf
Видео
Идентификатор : 1
Формат : AVC
Формат/Информация : Advanced Video Codec
Профиль формата : High@L4.1
Параметр CABAC формата : Да
Параметр ReFrames формата : 9 кадров
Идентификатор кодека : V_MPEG4/ISO/AVC
Продолжительность : 1 ч. 39 м.
Битрейт : 1723 Кбит/сек
Ширина : 720 пикселей
Высота : 304 пикселя
Соотношение сторон : 2,35:1
Режим частоты кадров : Постоянный
Частота кадров : 25,000 кадров/сек
Цветовое пространство : YUV
Субдискретизация насыщенности : 4:2:0
Битовая глубина : 8 бит
Тип развёртки : Прогрессивная
Бит/(Пиксели*Кадры) : 0.315
Размер потока : 1,20 Гбайт (81%)
Библиотека кодирования : x264 core 148 r2638 7599210
Настройки программы : cabac=1 / ref=9 / deblock=1:-2:-1 / analyse=0x3:0x133 / me=umh / subme=10 / psy=1 / psy_rd=1.00:0.00 / mixed_ref=1 / me_range=24 / chroma_me=1 / trellis=2 / 8x8dct=1 / cqm=0 / deadzone=21,11 / fast_pskip=0 / chroma_qp_offset=-2 / threads=6 / lookahead_threads=1 / sliced_threads=0 / nr=0 / decimate=0 / interlaced=0 / bluray_compat=0 / constrained_intra=0 / bframes=9 / b_pyramid=2 / b_adapt=2 / b_bias=0 / direct=3 / weightb=1 / open_gop=1 / weightp=2 / keyint=250 / keyint_min=25 / scenecut=40 / intra_refresh=0 / rc_lookahead=60 / rc=2pass / mbtree=0 / bitrate=1723 / ratetol=1.0 / qcomp=0.70 / qpmin=10 / qpmax=51 / qpstep=4 / cplxblur=20.0 / qblur=0.5 / vbv_maxrate=62500 / vbv_bufsize=78125 / nal_hrd=none / filler=0 / ip_ratio=1.40 / pb_ratio=1.30 / aq=1:1.00
Язык : English
Default : Да
Forced : Нет
Цветовой диапазон : Limited
Коэффициенты матрицы : BT.709
Аудио #1
Идентификатор : 2
Формат : AC-3
Формат/Информация : Audio Coding 3
Расширение режима : CM (complete main)
Параметр Endianness формата : Big
Идентификатор кодека : A_AC3
Продолжительность : 1 ч. 39 м.
Вид битрейта : Постоянный
Битрейт : 192 Кбит/сек
Каналы : 2 канала
Расположение каналов : Front: L R
Частота : 48,0 КГц
Частота кадров : 31,250 кадров/сек (1536 spf)
Метод сжатия : С потерями
Размер потока : 137 Мбайт (9%)
Заголовок : Ворон и Wenlana
Язык : Russian
Default : Да
Forced : Нет
Аудио #2
Идентификатор : 3
Формат : AC-3
Формат/Информация : Audio Coding 3
Расширение режима : CM (complete main)
Параметр Endianness формата : Big
Идентификатор кодека : A_AC3
Продолжительность : 1 ч. 39 м.
Вид битрейта : Постоянный
Битрейт : 192 Кбит/сек
Каналы : 2 канала
Расположение каналов : Front: L R
Частота : 48,0 КГц
Частота кадров : 31,250 кадров/сек (1536 spf)
Метод сжатия : С потерями
Размер потока : 137 Мбайт (9%)
Заголовок : Original
Язык : Chinese
Default : Нет
Forced : Нет
Текст #1
Идентификатор : 4
Формат : ASS
Идентификатор кодека : S_TEXT/ASS
Идентификатор кодека/Информация : Advanced Sub Station Alpha
Продолжительность : 1 ч. 34 м.
Битрейт : 11 бит/сек
Count of elements : 95
Метод сжатия : Без потерь
Размер потока : 7,65 Кбайт (0%)
Заголовок : форсированный(надписи)
Язык : Russian
Default : Да
Forced : Да
Текст #2
Идентификатор : 5
Формат : ASS
Идентификатор кодека : S_TEXT/ASS
Идентификатор кодека/Информация : Advanced Sub Station Alpha
Продолжительность : 1 ч. 36 м.
Битрейт : 179 бит/сек
Count of elements : 1811
Метод сжатия : Без потерь
Размер потока : 128 Кбайт (0%)
Заголовок : Перевод - [Фансаб-группа Zipper]
Язык : Russian
Default : Нет
Forced : Нет

Пример Субтитров

Dialogue: 1,0:03:52.89,0:03:53.84,Default,,0,0,0,fx,{\fad(50,50)\bord2\blur3)}Жёнушка,
Dialogue: 1,0:03:54.36,0:03:55.73,Default,,0,0,0,fx,{\fad(50,50)\bord2\blur3)}
Dialogue: 1,0:03:54.36,0:03:55.73,Default,,0,0,0,fx,{\fad(50,50)\bord2\blur3)}сделай ещё одну для меня.
Dialogue: 1,0:03:57.16,0:03:58.88,Default,,0,0,0,fx,{\fad(50,50)\bord2\blur3)}
Dialogue: 1,0:03:57.16,0:03:58.88,Default,,0,0,0,fx,{\fad(50,50)\bord2\blur3)}Пак ДжунХо, не подведи нас!
Dialogue: 1,0:03:58.98,0:04:01.02,Default,,0,0,0,fx,{\fad(50,50)\bord2\blur3)}
Dialogue: 1,0:03:58.98,0:04:01.02,Default,,0,0,0,fx,{\fad(50,50)\bord2\blur3)}Если проиграешь, даже не мечтай попасть домой!
Dialogue: 1,0:04:01.16,0:04:02.34,Default,,0,0,0,fx,{\fad(50,50)\bord2\blur3)}
Dialogue: 1,0:04:01.16,0:04:02.34,Default,,0,0,0,fx,{\fad(50,50)\bord2\blur3)}Вперёд!
Dialogue: 1,0:04:09.97,0:04:11.01,Default,,0,0,0,fx,{\fad(50,50)\bord2\blur3)}
Dialogue: 1,0:04:09.97,0:04:11.01,Default,,0,0,0,fx,{\fad(50,50)\bord2\blur3)}Что за ребячество.
Dialogue: 1,0:04:11.20,0:04:12.44,Default,,0,0,0,fx,{\fad(50,50)\bord2\blur3)}
Dialogue: 1,0:04:11.20,0:04:12.44,Default,,0,0,0,fx,{\fad(50,50)\bord2\blur3)}До дна!
Dialogue: 1,0:04:16.02,0:04:16.99,Default,,0,0,0,fx,{\fad(50,50)\bord2\blur3)}
Dialogue: 1,0:04:16.02,0:04:16.99,Default,,0,0,0,fx,{\fad(50,50)\bord2\blur3)}Выпей.
Dialogue: 1,0:04:18.99,0:04:20.29,Default,,0,0,0,fx,{\fad(50,50)\bord2\blur3)}
Dialogue: 1,0:04:18.99,0:04:20.29,Default,,0,0,0,fx,{\fad(50,50)\bord2\blur3)}Все, внимание.
Dialogue: 1,0:04:20.82,0:04:22.31,Default,,0,0,0,fx,{\fad(50,50)\bord2\blur3)}
Dialogue: 1,0:04:20.82,0:04:22.31,Default,,0,0,0,fx,{\fad(50,50)\bord2\blur3)}Я покажу вам
Dialogue: 1,0:04:22.86,0:04:24.00,Default,,0,0,0,fx,{\fad(50,50)\bord2\blur3)}
Dialogue: 1,0:04:22.86,0:04:24.00,Default,,0,0,0,fx,{\fad(50,50)\bord2\blur3)}фокус.
Dialogue: 1,0:04:25.91,0:04:27.36,Default,,0,0,0,fx,{\fad(50,50)\bord2\blur3)}
Dialogue: 1,0:04:25.91,0:04:27.36,Default,,0,0,0,fx,{\fad(50,50)\bord2\blur3)}Валяй.
Dialogue: 1,0:04:27.47,0:04:27.93,Default,,0,0,0,fx,{\fad(50,50)\bord2\blur3)}
Dialogue: 1,0:04:27.47,0:04:27.93,Default,,0,0,0,fx,{\fad(50,50)\bord2\blur3)}Хорошо.
Dialogue: 1,0:04:29.57,0:04:32.05,Default,,0,0,0,fx,{\fad(50,50)\bord2\blur3)}
Dialogue: 1,0:04:29.57,0:04:32.05,Default,,0,0,0,fx,{\fad(50,50)\bord2\blur3)}Итак, настало время волшебства.
Dialogue: 1,0:04:33.90,0:04:35.26,Default,,0,0,0,fx,{\fad(50,50)\bord2\blur3)}
Dialogue: 1,0:04:33.90,0:04:35.26,Default,,0,0,0,fx,{\fad(50,50)\bord2\blur3)}Смотрите сюда.
Dialogue: 1,0:04:36.90,0:04:37.75,Default,,0,0,0,fx,{\fad(50,50)\bord2\blur3)}
Dialogue: 1,0:04:36.90,0:04:37.75,Default,,0,0,0,fx,{\fad(50,50)\bord2\blur3)}Ничего?
Dialogue: 1,0:04:39.30,0:04:40.78,Default,,0,0,0,fx,{\fad(50,50)\bord2\blur3)}
Dialogue: 1,0:04:39.30,0:04:40.78,Default,,0,0,0,fx,{\fad(50,50)\bord2\blur3)}Смотрите внимательно.
Dialogue: 1,0:04:46.25,0:04:48.34,Default,,0,0,0,fx,{\fad(50,50)\bord2\blur3)}
Dialogue: 1,0:04:46.25,0:04:48.34,Default,,0,0,0,fx,{\fad(50,50)\bord2\blur3)}И вот она - магия!
Dialogue: 1,0:04:49.13,0:04:50.06,Default,,0,0,0,fx,{\fad(50,50)\bord2\blur3)}
Dialogue: 1,0:04:49.13,0:04:50.06,Default,,0,0,0,fx,{\fad(50,50)\bord2\blur3)}Что за?
Dialogue: 1,0:04:50.15,0:04:51.36,Default,,0,0,0,fx,{\fad(50,50)\bord2\blur3)}
Dialogue: 1,0:04:50.15,0:04:51.36,Default,,0,0,0,fx,{\fad(50,50)\bord2\blur3)}Это у тебя подкат такой?
Dialogue: 1,0:04:52.66,0:04:53.75,Default,,0,0,0,fx,{\fad(50,50)\bord2\blur3)}
Dialogue: 1,0:04:52.66,0:04:53.75,Default,,0,0,0,fx,{\fad(50,50)\bord2\blur3)}Дай сюда.
Dialogue: 1,0:04:53.85,0:04:55.05,Default,,0,0,0,fx,{\fad(50,50)\bord2\blur3)}
Dialogue: 1,0:04:53.85,0:04:55.05,Default,,0,0,0,fx,{\fad(50,50)\bord2\blur3)}Что это за фигня?
Субтитры выложены с разрешения фансаб-группы "Zipper"
[Профиль] [ЛС]
Показать сообщения:    
Ответить на тему

Текущее время: 15-Сен 11:24

Часовой пояс: UTC + 3



Вы не можете начинать темы
Вы не можете отвечать на сообщения
Вы не можете редактировать свои сообщения
Вы не можете удалять свои сообщения
Вы не можете голосовать в опросах
Вы не можете прикреплять файлы к сообщениям
Вы не можете скачивать файлы