Достучаться до сердца / Tarm Ruk Keun Jai [2/14] [2015-2016, романтика, комедия, HDTVRip][720р] DVO (SOUND-GROUP)

Страницы :  1, 2, 3, 4  След.

Ответить на тему
 
Автор Сообщение

Sandairina ®

Пол: Женский

Стаж: 4 года 6 месяцев

Сообщений: 68

Создавать темы 18-Фев-2017 16:25

[Цитировать]

Достучаться до сердца / Tarm Ruk Keun Jai
Производство: Таиланд
Год: 2015-2016
Продолжительность: 14 серий по 110 мин
Жанр: романтика, комедия
Канал: CH3
Компания: Lakorn Thai
Перевод: Двухголосая озвучка, SOUND-GROUP
В ролях:
Барри / Barry / Nadech Kugimiya - Синкх
Миу / Mew Nittha Jirayungyurn - Нуна (Нара, На)
Ау / Tanakorn Posayanon - Рам
Диана / Diana Flipo - Канита
Гейл / Gale Warunlak Sirimaneewattana - Тжу
Таня / Tanya 'Tanyares' Ramnarong - Расами Ванпанит
Thongpoom Siripipat
Go Gosin Ratchakrome
Описание:
Главная героиня из богатой семьи всю жизнь считала, что её папа умер, и вот однажды она узнаёт, что он жив и работает на ферме у главного героя. Она решает познакомиться с отцом, не говоря, что приходится ему дочерью. Для этого она притворяется, что сама из бедной семьи, и устраивается работать на ферму к главному герою. Так как делать она ничего не умеет, то постоянно устраивает беспорядок. На ферме её переводили с одной работы на другую, пока главный герой не забрал её к себе помощником под личный контроль.
Доп.информация:
Русские субтитры: ФСГ АЛЬЯНC
Перевод: galya1981
Редакция: Любаня
Тайминг: Omkasia
Тайсептинг: msv24
Перевод песен: Zolotko и galya1981
Работа со звуком: Sandairina
Озвучивание: Андрей Григорьев и Sandairina
Сэмпл:https://yadi.sk/mail/?hash=DFTtddDUY93BMFYhlA6T1dtp...mp;uid=142586922
Неотключаемые субтитры: Полухардсаб (надписи для озвучки)
Субтитры: нет
Качество видео: HDTVRip
Формат: MP4
Видео: AVC1, 1280х720, 25.000fps, 1 738Kbps
Аудио: mp3, 48 KHz, 192 Kbps, stereo Язык Русский (в составе контейнера)

МедиаИнфо

Format : MPEG-4
Format profile : Base Media
Codec ID : isom
File size : 1.32 GiB
Duration : 1h 48mn
Overall bit rate : 1 738 Kbps
Encoded date : UTC 2017-02-17 22:08:18
Tagged date : UTC 2017-02-17 22:08:18
Video
ID : 1
Format : AVC
Format/Info : Advanced Video Codec
Format profile : High@L4.1
Format settings, CABAC : Yes
Format settings, ReFrames : 5 frames
Codec ID : avc1
Codec ID/Info : Advanced Video Coding
Duration : 1h 48mn
Bit rate : 1 546 Kbps
Maximum bit rate : 5 472 Kbps
Width : 1 280 pixels
Height : 720 pixels
Display aspect ratio : 16:9
Frame rate mode : Constant
Frame rate : 25.000 fps
Color space : YUV
Chroma subsampling : 4:2:0
Bit depth : 8 bits
Scan type : Progressive
Bits/(Pixel*Frame) : 0.067
Stream size : 1.17 GiB (89%)
Writing library : x264 core 130 r2273 b3065e6
Encoding settings : cabac=1 / ref=5 / deblock=1:-2:-1 / analyse=0x3:0x133 / me=hex / subme=4 / psy=1 / psy_rd=1.00:0.00 / mixed_ref=0 / me_range=16 / chroma_me=1 / trellis=1 / 8x8dct=1 / cqm=0 / deadzone=21,11 / fast_pskip=1 / chroma_qp_offset=0 / threads=12 / lookahead_threads=3 / sliced_threads=0 / nr=0 / decimate=1 / interlaced=0 / bluray_compat=0 / constrained_intra=0 / bframes=5 / b_pyramid=2 / b_adapt=1 / b_bias=0 / direct=1 / weightb=1 / open_gop=0 / weightp=2 / keyint=250 / keyint_min=25 / scenecut=40 / intra_refresh=0 / rc_lookahead=20 / rc=abr / mbtree=1 / bitrate=1546 / ratetol=1.0 / qcomp=0.60 / qpmin=10 / qpmax=51 / qpstep=4 / vbv_maxrate=62500 / vbv_bufsize=78125 / nal_hrd=none / ip_ratio=1.40 / aq=1:1.00
Encoded date : UTC 2017-02-17 22:08:18
Tagged date : UTC 2017-02-17 22:13:44
Audio
ID : 2
Format : MPEG Audio
Format version : Version 1
Format profile : Layer 3
Mode : Joint stereo
Codec ID : 6B
Duration : 1h 48mn
Bit rate mode : Constant
Bit rate : 192 Kbps
Maximum bit rate : 198 Kbps
Channel(s) : 2 channels
Sampling rate : 48.0 KHz
Compression mode : Lossy
Stream size : 149 MiB (11%)
Encoded date : UTC 2017-02-17 22:13:39
Tagged date : UTC 2017-02-17 22:13:44

Скриншоты

Пожалуйста, оставайтесь на раздаче как можно дольше!
[Профиль] [ЛС]

Larrytar

Пол: Мужской

Стаж: 12 дней

Сообщений: 240

Откуда: Greece

Создавать темы 06-Сен-2019 18:21 (спустя 2 года 6 месяцев)

[Цитировать]

generic lasix furosemide <a href=http://lolasix.info/#>buy furosemide no prescription</a>
[Профиль] [ЛС]

Larrytar

Пол: Мужской

Стаж: 12 дней

Сообщений: 240

Откуда: Greece

Создавать темы 06-Сен-2019 18:21 (спустя 22 секунды)

[Цитировать]

generic lasix lasix <a href=http://lolasix.info/#>lasix online</a>
[Профиль] [ЛС]

Larrytar

Пол: Мужской

Стаж: 12 дней

Сообщений: 240

Откуда: Greece

Создавать темы 06-Сен-2019 18:22 (спустя 28 секунд)

[Цитировать]

buy lasix medication lasix <a href=http://lolasix.info/#>buy lasix usa</a>
[Профиль] [ЛС]

Larrytar

Пол: Мужской

Стаж: 12 дней

Сообщений: 240

Откуда: Greece

Создавать темы 06-Сен-2019 18:22 (спустя 23 секунды)

[Цитировать]

buy lasix uk lasix generic <a href=http://lolasix.info/#>buy lasix cheap</a>
[Профиль] [ЛС]

Larrytar

Пол: Мужской

Стаж: 12 дней

Сообщений: 240

Откуда: Greece

Создавать темы 06-Сен-2019 18:23 (спустя 22 секунды)

[Цитировать]

lasix generic purchase lasix <a href=http://lolasix.info/#>buy lasix cheap</a>
[Профиль] [ЛС]

Larrytar

Пол: Мужской

Стаж: 12 дней

Сообщений: 240

Откуда: Greece

Создавать темы 06-Сен-2019 18:23 (спустя 24 секунды)

[Цитировать]

buy lasix online buy lasix pills <a href=http://lolasix.info/#>buy lasix online without prescription</a>
[Профиль] [ЛС]

Larrytar

Пол: Мужской

Стаж: 12 дней

Сообщений: 240

Откуда: Greece

Создавать темы 06-Сен-2019 18:23 (спустя 21 секунда)

[Цитировать]

lasix 100 mg lasix generic <a href=http://lolasix.info/#>lasix generic</a>
[Профиль] [ЛС]

Larrytar

Пол: Мужской

Стаж: 12 дней

Сообщений: 240

Откуда: Greece

Создавать темы 06-Сен-2019 18:24 (спустя 32 секунды)

[Цитировать]

buy furosemide buy lasix pills <a href=http://lolasix.info/#>lasix 40 mg</a>
[Профиль] [ЛС]

Larrytar

Пол: Мужской

Стаж: 12 дней

Сообщений: 240

Откуда: Greece

Создавать темы 06-Сен-2019 18:24 (спустя 28 секунд)

[Цитировать]

lasix cheap purchase furosemide <a href=http://lolasix.info/#>buy lasix uk</a>
[Профиль] [ЛС]

Larrytar

Пол: Мужской

Стаж: 12 дней

Сообщений: 240

Откуда: Greece

Создавать темы 06-Сен-2019 18:25 (спустя 33 секунды)

[Цитировать]

buy generic lasix lasix 40 mg <a href=http://lolasix.info/#>lasix 100 mg</a>
[Профиль] [ЛС]

Larrytar

Пол: Мужской

Стаж: 12 дней

Сообщений: 240

Откуда: Greece

Создавать темы 06-Сен-2019 18:25 (спустя 32 секунды)

[Цитировать]

buy lasix pills buy lasix medication <a href=http://lolasix.info/#>buy lasix pills</a>
[Профиль] [ЛС]

Larrytar

Пол: Мужской

Стаж: 12 дней

Сообщений: 240

Откуда: Greece

Создавать темы 06-Сен-2019 18:26 (спустя 40 секунд)

[Цитировать]

lasix online generic lasix <a href=http://lolasix.info/#>buy lasix usa</a>
[Профиль] [ЛС]

Larrytar

Пол: Мужской

Стаж: 12 дней

Сообщений: 240

Откуда: Greece

Создавать темы 06-Сен-2019 18:26 (спустя 23 секунды)

[Цитировать]

buy lasix pills online buy lasix pills online <a href=http://lolasix.info/#>buy furosemide</a>
[Профиль] [ЛС]

Larrytar

Пол: Мужской

Стаж: 12 дней

Сообщений: 240

Откуда: Greece

Создавать темы 06-Сен-2019 18:27 (спустя 33 секунды)

[Цитировать]

order furosemide buy lasix no rx <a href=http://lolasix.info/#>buy lasix no rx</a>
[Профиль] [ЛС]
Показать сообщения:    
Ответить на тему

Текущее время: 15-Сен 10:40

Часовой пояс: UTC + 3



Вы не можете начинать темы
Вы не можете отвечать на сообщения
Вы не можете редактировать свои сообщения
Вы не можете удалять свои сообщения
Вы не можете голосовать в опросах
Вы не можете прикреплять файлы к сообщениям
Вы не можете скачивать файлы